<?xml version="1.0" standalone="no"?>
<!DOCTYPE svg PUBLIC "-//W3C//DTD SVG 1.1//EN" "http://www.w3.org/Graphics/SVG/1.1/DTD/svg11.dtd" >
<svg>
<metadata>
Created by FontForge 20110222 at Fri Mar 14 07:02:12 2014
 By Orthosie Webhosting
Copyright (c) 1985, 1987, 1989, 1990, 1991, 1992, 1997, 1998, 1999 Adobe Systems Incorporated. All Rights Reserved.ITC Avant Garde Gothic is a registered trademark of International Typeface Corporation.
</metadata>
<defs>
<font id="AvantGardeLTBookBold" horiz-adv-x="560" >
  <font-face 
    font-family="AvantGardeLTBookBold"
    font-weight="700"
    font-stretch="normal"
    units-per-em="1000"
    panose-1="2 0 8 3 3 0 0 2 0 4"
    ascent="800"
    descent="-200"
    x-height="555"
    cap-height="740"
    bbox="-123 -251 1222 1021"
    underline-thickness="50"
    underline-position="-75"
    unicode-range="U+0020-FB02"
  />
<missing-glyph horiz-adv-x="280" 
 />
    <glyph glyph-name=".notdef" horiz-adv-x="280" 
 />
    <glyph glyph-name=".null" horiz-adv-x="0" 
 />
    <glyph glyph-name="nonmarkingreturn" horiz-adv-x="280" 
 />
    <glyph glyph-name="space" unicode=" " horiz-adv-x="280" 
 />
    <glyph glyph-name="space" unicode="&#xa0;" horiz-adv-x="280" 
 />
    <glyph glyph-name="exclam" unicode="!" horiz-adv-x="280" 
d="M73 127h133v-127h-133v127zM73 740h133v-552h-133v552z" />
    <glyph glyph-name="quotedbl" unicode="&#x22;" horiz-adv-x="360" 
d="M233 444l-25 296h133l-26 -296h-82zM45 444l-26 296h133l-27 -296h-80z" />
    <glyph glyph-name="numbersign" unicode="#" 
d="M244 408l-16 -116h91l16 116h-91zM491 197h-86l-27 -197h-100l27 197h-91l-27 -197h-100l27 197h-85l4 95h95l16 116h-85l4 95h94l27 197h100l-27 -197h91l27 197h100l-27 -197h77l-4 -95h-86l-16 -116h76z" />
    <glyph glyph-name="dollar" unicode="$" 
d="M190 249q1 -26 11 -42.5t23.5 -26t28 -13.5t26.5 -4q14 0 30 5t29 15.5t21.5 27t8.5 38.5q0 25 -8.5 40.5t-23.5 26t-35 17t-44 13.5q-49 13 -81.5 34.5t-52.5 47.5t-28.5 55.5t-8.5 60.5q0 66 35.5 116.5t101.5 68.5v128h126v-130q53 -17 88 -61t41 -110h-125
q-2 7 -6 17.5t-11.5 20.5t-19.5 16.5t-31 6.5q-12 0 -23.5 -4.5t-21 -13.5t-15.5 -22t-6 -29q0 -21 7.5 -34.5t23 -23t39 -18t55.5 -18.5q14 -4 40 -14.5t52 -33t45.5 -60.5t19.5 -96q0 -44 -13 -78t-34 -59.5t-48.5 -42t-56.5 -24.5v-132h-126v131q-59 16 -92 45
t-49.5 58.5t-20 54t-3.5 32.5v14h132z" />
    <glyph glyph-name="percent" unicode="%" horiz-adv-x="860" 
d="M530 740h102l-307 -740h-101zM572 166q0 -29 20.5 -49.5t49.5 -20.5q28 0 48.5 20.5t20.5 49.5q0 30 -20.5 50t-48.5 20q-30 0 -50 -20.5t-20 -49.5zM461 166q0 37 14 70t39 58t57.5 39t70.5 14q37 0 70 -14t57.5 -39t38.5 -58t14 -70q0 -38 -14.5 -71t-39 -57.5
t-57.5 -38.5t-69 -14q-37 0 -70 14t-57.5 38.5t-39 57.5t-14.5 71zM147 574q0 -28 20 -48.5t49 -20.5q27 0 48 20t21 50q0 29 -20 49t-49 20t-49 -20t-20 -50zM36 574q0 37 14 70t38.5 58t57.5 39t70 14t70 -14t57.5 -39t38.5 -58t14 -70q0 -38 -14 -70.5t-38.5 -57
t-57.5 -38.5t-70 -14t-69.5 14t-57 38.5t-39 57t-14.5 70.5z" />
    <glyph glyph-name="ampersand" unicode="&#x26;" horiz-adv-x="680" 
d="M257 323q-11 -5 -26 -13t-29.5 -21t-24.5 -31.5t-10 -43.5q0 -24 9 -42.5t23.5 -31t32.5 -19t37 -6.5q22 0 38.5 8.5t29 21t21.5 27t15 25.5zM290 482q14 7 27 14.5t23.5 17.5t17 22.5t6.5 29.5q0 11 -3.5 22t-11 20t-20 15t-30.5 6q-25 0 -43.5 -17.5t-18.5 -43.5
q0 -24 15.5 -44t37.5 -42zM661 437l-127 -224l131 -142l-97 -86l-102 111q-10 -14 -26 -33t-39.5 -36.5t-53.5 -29.5t-69 -12q-42 0 -85.5 16t-79 46t-57.5 73.5t-22 99.5q0 48 15.5 83t37.5 59.5t45.5 40.5t40.5 26q-13 15 -24 30t-19.5 31.5t-13.5 35.5t-5 42q0 43 16 78
t42.5 59t60 37t69.5 13q38 0 72.5 -13.5t61 -37.5t42 -58t15.5 -74q0 -43 -13.5 -74t-32.5 -53t-38.5 -35t-32.5 -20l68 -76l72 123h148z" />
    <glyph glyph-name="quotesingle" unicode="'" horiz-adv-x="220" 
d="M70 444l-26 296h133l-26 -296h-81z" />
    <glyph glyph-name="parenleft" unicode="(" horiz-adv-x="380" 
d="M350 -157q-14 5 -29 11t-32.5 16.5t-36.5 26t-41 39.5q-16 18 -39.5 50t-45 78t-37 104t-15.5 129q0 111 40 208.5t109 166.5q36 35 67.5 52.5t59.5 29.5v-144q-37 -30 -63.5 -67t-43 -77.5t-24.5 -83t-8 -84.5q0 -62 14.5 -113.5t36 -91t45.5 -66.5t43 -40v-144z" />
    <glyph glyph-name="parenright" unicode=")" horiz-adv-x="380" 
d="M37 754q13 -5 28.5 -11t32.5 -16.5t36.5 -26t41.5 -39.5q16 -18 39.5 -50t45 -78t37 -104.5t15.5 -128.5q0 -111 -40 -208.5t-109 -166.5q-36 -35 -67.5 -52.5t-59.5 -29.5v144q37 30 63.5 67t43 77.5t24.5 83t8 84.5q0 62 -14.5 113.5t-36 91t-45.5 66t-43 40.5v144z
" />
    <glyph glyph-name="asterisk" unicode="*" horiz-adv-x="440" 
d="M272 755l56 -39l-56 -83l102 5l-1 -67l-101 5l56 -83l-61 -36l-46 92l-47 -92l-61 36l57 83l-102 -5l-1 67l102 -5l-55 83l56 39l51 -92z" />
    <glyph glyph-name="plus" unicode="+" horiz-adv-x="600" 
d="M240 506h120v-193h192v-120h-192v-193h-120v193h-192v120h192v193z" />
    <glyph glyph-name="comma" unicode="," horiz-adv-x="280" 
d="M73 133h133v-141q0 -40 -13.5 -65.5t-33 -40.5t-42 -21t-40.5 -6h-3v67q9 2 19 4.5t18.5 8.5t14.5 16.5t6 27.5v17h-59v133z" />
    <glyph glyph-name="hyphen" unicode="-" horiz-adv-x="420" 
d="M71 348h278v-118h-278v118z" />
    <glyph glyph-name="hyphen" unicode="&#xad;" horiz-adv-x="420" 
d="M71 348h278v-118h-278v118z" />
    <glyph glyph-name="period" unicode="." horiz-adv-x="280" 
d="M73 133h133v-133h-133v133z" />
    <glyph glyph-name="slash" unicode="/" horiz-adv-x="460" 
d="M319 740h135l-314 -840h-134z" />
    <glyph glyph-name="zero" unicode="0" 
d="M396 505q0 27 -9 50t-24.5 39.5t-36.5 25.5t-44 9q-48 0 -82.5 -33t-34.5 -96v-252q0 -42 12 -69t29.5 -42t37.5 -20.5t37 -5.5q14 0 34 4.5t38 19t30.5 40.5t12.5 70v260zM529 233q0 -60 -20.5 -106.5t-55 -78t-79 -47.5t-93.5 -16q-56 0 -100 18.5t-88 62.5
q-30 30 -45.5 70.5t-15.5 103.5v266q0 66 22.5 113t59 77t81.5 44.5t90 14.5q42 0 85.5 -15.5t79 -46t57.5 -77.5t22 -110v-273z" />
    <glyph glyph-name="one" unicode="1" 
d="M230 614h-93v126h226v-740h-133v614z" />
    <glyph glyph-name="two" unicode="2" 
d="M44 126l264 246q27 25 43.5 46.5t25 39.5t11 32.5t2.5 27.5q0 29 -10 50t-25.5 34.5t-34.5 20t-38 6.5q-39 0 -63.5 -20t-35.5 -40q-10 -19 -12 -40t-2 -43h-132q-1 8 -1 13v11q0 44 16.5 87.5t47.5 78.5t76 57t103 22q57 0 102 -21t76.5 -55t48.5 -78t17 -89
q0 -29 -6.5 -57.5t-22.5 -59t-43.5 -64t-70.5 -71.5l-150 -134h293v-126h-479v126z" />
    <glyph glyph-name="three" unicode="3" 
d="M230 480h23q18 0 34.5 4t29.5 13.5t21 24.5t8 37q0 40 -20.5 55t-45.5 15q-18 0 -30.5 -7.5t-20 -18.5t-11 -22.5t-4.5 -19.5h-133q5 64 30 102.5t56.5 58.5t62.5 26.5t48 6.5q43 0 80 -16.5t64 -44.5t42 -64t15 -75q0 -31 -7.5 -53.5t-17.5 -38t-21 -25t-18 -14.5
q44 -18 67.5 -47.5t34.5 -58.5t13 -53t2 -32q0 -57 -21.5 -103t-57 -78.5t-81.5 -49.5t-94 -17q-46 0 -89.5 16t-78 47t-57 75t-25.5 100h133q3 -30 15.5 -51t30 -34.5t37.5 -20t37 -6.5q21 0 42 8.5t38 24t27.5 38t10.5 49.5q0 22 -7.5 44t-25 39.5t-45.5 28.5t-69 11h-22
v126z" />
    <glyph glyph-name="four" unicode="4" 
d="M334 237v278h-2l-174 -278h176zM355 740h112v-503h78v-126h-78v-111h-133v111h-319v109z" />
    <glyph glyph-name="five" unicode="5" 
d="M128 740h335v-126h-235l-24 -136q22 10 45.5 15.5t49.5 5.5q52 0 95 -21.5t74.5 -57t49 -82t17.5 -95.5q0 -51 -19 -97.5t-53 -82t-81 -57t-104 -21.5q-49 0 -94 18.5t-79.5 50.5t-56 75t-23.5 91h133q6 -32 19 -53t29.5 -33.5t34.5 -17.5t34 -5q32 0 56 12t39.5 31.5
t23.5 42.5t8 46q0 22 -8.5 45.5t-24.5 42t-39.5 30.5t-52.5 12q-21 0 -37 -5.5t-28 -13.5t-20.5 -17t-14.5 -17l-119 33z" />
    <glyph glyph-name="six" unicode="6" 
d="M156 244q0 -27 9.5 -51.5t26 -42.5t39 -28.5t49.5 -10.5q30 0 53 12t38.5 30.5t23.5 41t8 44.5q0 27 -9.5 50.5t-26.5 41t-40 28t-50 10.5q-29 0 -51.5 -12t-38 -30t-23.5 -40t-8 -43zM445 739l-164 -250q8 2 17 2.5t19 0.5q39 0 78.5 -17t70.5 -48.5t50.5 -76
t19.5 -99.5q0 -59 -21 -108t-56.5 -84t-81.5 -54.5t-97 -19.5q-50 0 -96.5 18.5t-82 53t-57 83.5t-21.5 110q0 20 4 43.5t13 48.5q9 23 19.5 43.5t23.5 39.5l206 314h156z" />
    <glyph glyph-name="seven" unicode="7" 
d="M359 614h-297v126h436v-126l-267 -614h-148z" />
    <glyph glyph-name="eight" unicode="8" 
d="M394 225q0 24 -9 44.5t-24.5 36t-36 24.5t-44.5 9t-44.5 -9t-36 -24.5t-24.5 -36t-9 -44.5t9 -44.5t24.5 -36t36 -24.5t44.5 -9t44.5 9t36 24.5t24.5 36t9 44.5zM359 549q0 33 -23 56.5t-56 23.5q-32 0 -55 -23.5t-23 -56.5q0 -32 23 -55.5t55 -23.5q33 0 56 23.5
t23 55.5zM143 411q-9 9 -20.5 21.5t-21.5 29.5t-17 39t-7 50q0 37 13.5 74t39.5 65.5t64 46.5t86 18t86 -18t64.5 -46.5t40 -65.5t13.5 -74q0 -28 -7 -50t-17.5 -39t-22 -29.5t-20.5 -21.5q11 -6 29.5 -19t36.5 -35t31 -54.5t13 -77.5q0 -51 -20.5 -95t-54.5 -76.5
t-79 -50.5t-93 -18t-93 18t-79 50.5t-54.5 76.5t-20.5 95q0 45 13 77.5t31 54.5t36.5 35t29.5 19z" />
    <glyph glyph-name="nine" unicode="9" 
d="M404 495q0 27 -9.5 51.5t-26 42.5t-39 28.5t-48.5 10.5q-30 0 -53.5 -12t-39 -30.5t-23.5 -41t-8 -44.5q0 -28 9 -52t25.5 -41t39.5 -27t50 -10q30 0 53 12t38.5 30t23.5 40t8 43zM115 0l164 250q-8 -2 -17 -2.5t-19 -0.5q-39 0 -78.5 17t-70.5 48.5t-50.5 75.5
t-19.5 100q0 59 21 108t56.5 84t81.5 54.5t97 19.5q50 0 96.5 -18.5t82 -53t57 -83.5t21.5 -110q0 -20 -4 -43.5t-13 -48.5q-9 -23 -19.5 -43.5t-23.5 -39.5l-206 -314h-156z" />
    <glyph glyph-name="colon" unicode=":" horiz-adv-x="280" 
d="M73 555h133v-133h-133v133zM73 133h133v-133h-133v133z" />
    <glyph glyph-name="semicolon" unicode=";" horiz-adv-x="280" 
d="M73 555h133v-133h-133v133zM73 133h133v-141q0 -40 -13.5 -65.5t-33 -40.5t-42 -21t-40.5 -6h-3v67q9 2 19 4.5t18.5 8.5t14.5 16.5t6 27.5v17h-59v133z" />
    <glyph glyph-name="less" unicode="&#x3c;" horiz-adv-x="600" 
d="M554 -8l-508 214v94l508 214v-115l-352 -146l352 -146v-115z" />
    <glyph glyph-name="equal" unicode="=" horiz-adv-x="600" 
d="M552 81h-504v120h504v-120zM552 305h-504v120h504v-120z" />
    <glyph glyph-name="greater" unicode="&#x3e;" horiz-adv-x="600" 
d="M398 253l-352 146v115l508 -214v-94l-508 -214v115z" />
    <glyph glyph-name="question" unicode="?" 
d="M193 133h133v-133h-133v133zM193 187v29q0 53 19 105t70 95q35 29 55.5 53t20.5 58q0 29 -9.5 47.5t-24 29t-31 14.5t-29.5 4q-29 0 -46.5 -9.5t-27 -24.5t-13.5 -32t-6 -32h-133q4 58 22 97.5t43 65t52.5 39.5t51.5 20.5t41 7.5t20 1q43 0 83.5 -15t71.5 -44.5t49.5 -72
t18.5 -96.5q0 -18 -3 -37t-13.5 -40.5t-30.5 -47.5t-54 -57q-13 -11 -24.5 -22t-20.5 -25.5t-14 -33t-5 -43.5v-34h-133z" />
    <glyph glyph-name="at" unicode="@" horiz-adv-x="740" 
d="M532 534h83l-67 -256q-3 -11 -5.5 -21t-2.5 -18q0 -20 18 -20q19 0 39 15t36.5 39.5t27.5 57t11 68.5q0 58 -20 103.5t-55 76.5t-82 47t-100 16q-62 0 -113.5 -23t-89.5 -63t-59 -93.5t-21 -114.5q0 -64 22 -117.5t61.5 -91.5t93 -59.5t116.5 -21.5t120.5 24t96.5 67h76
q-49 -77 -127.5 -119t-169.5 -42q-77 0 -145 27.5t-118 76.5t-79 115t-29 144q0 76 29 142t79 114.5t116.5 76.5t141.5 28q66 0 126.5 -21.5t106.5 -60.5t73.5 -94t27.5 -121q0 -72 -26.5 -124.5t-63.5 -87t-78 -51.5t-69 -17q-23 0 -39.5 14t-18.5 43h-2q-42 -57 -109 -57
q-31 0 -58 13t-47 35t-31.5 51t-11.5 62q0 47 15.5 92t43.5 80.5t67.5 57.5t88.5 22q35 0 63 -16t41 -53h2zM362 219q29 0 53 15.5t40.5 39t25.5 51.5t9 54q0 37 -21 61t-56 24q-29 0 -53 -14.5t-41 -37.5t-26.5 -50.5t-9.5 -53.5q0 -39 20.5 -64t58.5 -25z" />
    <glyph glyph-name="A" unicode="A" horiz-adv-x="740" 
d="M283 320h170l-84 227h-2zM315 740h107l310 -740h-151l-79 191h-265l-79 -191h-151z" />
    <glyph glyph-name="B" unicode="B" horiz-adv-x="580" 
d="M207 452h45q12 0 32 1t39 8.5t33 24t14 46.5q0 33 -23.5 56.5t-82.5 23.5h-57v-160zM207 128h69q10 0 33 1.5t46 10.5t41 29t18 56q0 11 -4 28t-18.5 32.5t-41 27t-71.5 11.5h-72v-196zM70 740h146q31 0 61.5 -1t59.5 -6t56 -17t51 -33q28 -25 45.5 -62.5t17.5 -75.5
q0 -35 -9.5 -59.5t-23 -41t-27.5 -26t-23 -14.5q18 -7 40.5 -19t41.5 -33t32 -53t13 -79q0 -33 -8 -60.5t-21 -49t-29.5 -38t-33.5 -28.5q-21 -15 -46.5 -23.5t-52 -13t-50.5 -6t-42 -1.5h-198v740z" />
    <glyph glyph-name="C" unicode="C" horiz-adv-x="780" 
d="M762 206q-22 -51 -58 -92t-81.5 -69.5t-97.5 -44t-105 -15.5q-80 0 -150.5 31t-123 84.5t-82.5 124t-30 148.5q0 76 29.5 145.5t81.5 122t122 83.5t150 31q46 0 96.5 -12.5t97.5 -39.5t87.5 -70t67.5 -104h-156q-40 46 -88 72t-110 26q-45 0 -88.5 -19t-77 -53.5
t-54.5 -81.5t-21 -102q0 -52 20 -99t54 -82t78.5 -56t93.5 -21q37 0 66 9.5t51.5 24t39.5 30.5t29 29h159z" />
    <glyph glyph-name="D" unicode="D" horiz-adv-x="700" 
d="M200 128h29q28 0 51.5 1.5t44.5 5t41.5 10.5t42.5 19q27 15 48 37.5t35 49.5t21 57t7 60q0 54 -21.5 102t-57.5 80q-43 39 -96.5 50.5t-118.5 11.5h-26v-484zM63 740h168q68 0 118 -8t86 -21t60 -28t40 -29q26 -23 48.5 -54t39 -68t25.5 -79t9 -85q0 -50 -12.5 -98
t-35.5 -90t-56 -76t-73 -56q-26 -14 -55.5 -23.5t-61.5 -15t-65 -7.5t-64 -2h-171v740z" />
    <glyph glyph-name="E" unicode="E" horiz-adv-x="520" 
d="M61 740h398v-128h-261v-181h250v-128h-250v-175h261v-128h-398v740z" />
    <glyph glyph-name="F" unicode="F" horiz-adv-x="480" 
d="M61 740h377v-128h-240v-181h229v-128h-229v-303h-137v740z" />
    <glyph glyph-name="G" unicode="G" horiz-adv-x="840" 
d="M334 377h483v-16q0 -79 -32 -147.5t-86 -119.5t-125 -80t-149 -29q-80 0 -152 29t-126.5 80.5t-87 122t-32.5 153.5q0 82 32 152t86.5 122t126 81.5t149.5 29.5q70 0 129.5 -21.5t105.5 -55t78 -74.5t46 -81h-164q-12 18 -30.5 36.5t-43.5 33.5t-56 24.5t-68 9.5
q-63 0 -110.5 -24t-79.5 -61.5t-48 -83.5t-16 -89q0 -42 16 -87.5t48.5 -83t81.5 -61.5t115 -24q68 0 127.5 35.5t91.5 100.5h-310v128z" />
    <glyph glyph-name="H" unicode="H" horiz-adv-x="680" 
d="M71 740h137v-301h265v301h137v-740h-137v311h-265v-311h-137v740z" />
    <glyph glyph-name="I" unicode="I" horiz-adv-x="280" 
d="M72 740h137v-740h-137v740z" />
    <glyph glyph-name="J" unicode="J" horiz-adv-x="480" 
d="M409 740v-530q0 -74 -24 -118.5t-56.5 -68t-66.5 -31t-55 -7.5q-56 0 -93.5 21t-57.5 43q-26 29 -37.5 63t-16.5 62h138q14 -61 65 -61q22 0 35.5 9.5t20.5 23t9 29t2 26.5v539h137z" />
    <glyph glyph-name="K" unicode="K" horiz-adv-x="620" 
d="M89 740h137v-320h2l231 320h161l-279 -364l279 -376h-161l-231 325h-2v-325h-137v740z" />
    <glyph glyph-name="L" unicode="L" horiz-adv-x="440" 
d="M72 740h137v-612h226v-128h-363v740z" />
    <glyph glyph-name="M" unicode="M" horiz-adv-x="900" 
d="M63 740h190l197 -560h2l195 560h190v-740h-137v555h-3l-189 -555h-116l-190 555h-2v-555h-137v740z" />
    <glyph glyph-name="N" unicode="N" horiz-adv-x="740" 
d="M70 740h156l306 -538h2v538h137v-740h-153l-309 538h-2v-538h-137v740z" />
    <glyph glyph-name="O" unicode="O" horiz-adv-x="840" 
d="M170 369q0 -51 19 -97.5t53 -82t79.5 -56t98.5 -20.5t98.5 20.5t79.5 56t53 82t19 97.5q0 53 -19.5 100t-53.5 82t-79.5 55.5t-97.5 20.5t-97.5 -20.5t-79.5 -55.5t-53.5 -82t-19.5 -100zM33 368q0 82 31 153t84 123t123 81.5t149 29.5t149 -29.5t123 -81.5t84 -123
t31 -153q0 -80 -30.5 -149.5t-83 -121.5t-123 -82t-150.5 -30t-150.5 30t-123 82t-83 121.5t-30.5 149.5z" />
    <glyph glyph-name="P" unicode="P" 
d="M209 410h44q22 0 49 2t50.5 12t39.5 30.5t16 56.5t-15.5 56.5t-38.5 30.5t-49 12t-47 2h-49v-202zM72 740h186q30 0 57.5 -1t54.5 -6.5t53 -17.5t52 -34q70 -64 70 -170q0 -52 -17 -94.5t-53 -75.5q-26 -22 -52 -34t-53 -17.5t-54.5 -6.5t-57.5 -1h-49v-282h-137v740z
" />
    <glyph glyph-name="Q" unicode="Q" horiz-adv-x="840" 
d="M617 215q7 10 16 22.5t17 30.5t13.5 42.5t5.5 58.5q0 55 -20 102.5t-54.5 82t-79.5 54t-96 19.5q-58 0 -103.5 -22t-77.5 -57.5t-49.5 -80t-19.5 -89.5q0 -11 0.5 -15.5t1.5 -7.5q14 3 32.5 6t48.5 3h20q49 0 93 -11t82 -27.5t69 -35.5t53 -35.5t34 -28l12 -11.5h2z
M520 135q-39 29 -73 48.5t-64 31t-57.5 16.5t-54.5 5q-21 0 -34.5 -2.5t-24.5 -6.5q20 -32 46.5 -53.5t54 -35t53.5 -19.5t47 -6h6q38 0 62 8t39 14zM824 -15h-19q-33 0 -59.5 6.5t-48.5 15.5t-38.5 19.5t-29.5 19.5q-46 -29 -99.5 -45t-110.5 -16q-80 0 -150.5 30t-123 82
t-83 121.5t-30.5 149.5q0 82 31 153t84 123t123 81.5t149 29.5q78 0 148 -29.5t123.5 -81t84.5 -121t31 -150.5q0 -49 -8.5 -87t-21.5 -66.5t-27 -48.5t-24 -34q20 -15 44 -19.5t33 -4.5h22v-128z" />
    <glyph glyph-name="R" unicode="R" horiz-adv-x="580" 
d="M201 386h88q42 0 68 12.5t40.5 30t19 37t4.5 34.5t-5.5 34.5t-20.5 37t-40.5 29t-65.5 11.5h-88v-226zM64 740h227q64 0 106 -12t74 -38q16 -13 31.5 -30.5t28 -40t20 -49.5t7.5 -59q0 -18 -3.5 -41t-12 -47t-22 -47t-33.5 -42q-33 -32 -64 -43t-59 -18l201 -273h-166
l-196 283h-2v-283h-137v740z" />
    <glyph glyph-name="S" unicode="S" horiz-adv-x="520" 
d="M156 212q3 -28 12.5 -47t23.5 -30.5t30 -16.5t32 -5q20 0 38.5 6.5t32.5 19t22.5 29.5t8.5 38q0 28 -9 46.5t-27 31.5t-44.5 23.5t-60.5 23.5q-21 8 -51.5 20.5t-58 35.5t-47 60.5t-19.5 96.5q0 44 16.5 82.5t45.5 67t68.5 45t86.5 16.5q32 0 69.5 -11.5t69.5 -37
t54.5 -65.5t25.5 -97h-140q-2 25 -10 41t-19.5 25.5t-25.5 13t-28 3.5q-32 0 -54 -21t-22 -54q0 -24 8.5 -39.5t24.5 -26.5t39 -19.5t51 -17.5q23 -8 56 -21.5t64 -39.5t52.5 -66.5t21.5 -100.5t-21 -104.5t-55.5 -73.5t-77.5 -43.5t-86 -14.5q-36 0 -77 12.5t-76.5 40
t-60 70.5t-27.5 104h144z" />
    <glyph glyph-name="T" unicode="T" horiz-adv-x="420" 
d="M143 612h-137v128h412v-128h-138v-612h-137v612z" />
    <glyph glyph-name="U" unicode="U" horiz-adv-x="640" 
d="M192 740v-470q0 -14 2 -40t14 -52t38 -45.5t74 -19.5t74 19.5t38 45.5t14 52t2 40v470h137v-470q0 -45 -8.5 -91.5t-34.5 -83.5q-32 -45 -88.5 -77.5t-132.5 -32.5q-42 0 -77.5 10.5t-63 26.5t-47.5 34.5t-32 34.5q-18 24 -32 67t-14 112v470h137z" />
    <glyph glyph-name="V" unicode="V" horiz-adv-x="700" 
d="M8 740h144l198 -563h2l199 563h144l-287 -740h-112z" />
    <glyph glyph-name="W" unicode="W" horiz-adv-x="900" 
d="M7 740h140l128 -517h2l127 517h100l124 -517h2l129 517h140l-215 -740h-109l-120 489h-2l-122 -489h-108z" />
    <glyph glyph-name="X" unicode="X" horiz-adv-x="680" 
d="M259 369l-255 371h163l173 -258l178 258h158l-256 -371l256 -369h-158l-178 256l-173 -256h-163z" />
    <glyph glyph-name="Y" unicode="Y" horiz-adv-x="620" 
d="M241 273l-243 467h150l161 -340l162 340h151l-244 -467v-273h-137v273z" />
    <glyph glyph-name="Z" unicode="Z" horiz-adv-x="500" 
d="M302 612h-268v128h428v-119l-281 -493h300v-128h-462v112z" />
    <glyph glyph-name="bracketleft" unicode="[" horiz-adv-x="320" 
d="M284 608q-15 -7 -29.5 -16t-26 -28.5t-18.5 -53t-7 -89.5v-265q0 -50 8.5 -80t21 -48t26.5 -26t25 -13v-146q-71 16 -114 54t-66 85.5t-30.5 100t-7.5 97.5v269q0 60 12.5 105t32.5 77.5t44.5 54t48.5 35.5t45.5 21.5t34.5 11.5v-146z" />
    <glyph glyph-name="backslash" unicode="\" horiz-adv-x="640" 
d="M544 -100h-134l-314 840h135z" />
    <glyph glyph-name="bracketright" unicode="]" horiz-adv-x="320" 
d="M36 -10q15 7 29.5 16t26 28t18.5 53t7 90v264q0 49 -8.5 79.5t-21 48.5t-26.5 26t-25 13v146q71 -17 114 -54.5t66 -85t30.5 -100t7.5 -97.5v-269q0 -60 -12.5 -105t-32.5 -77.5t-44.5 -54t-48.5 -35.5t-45.5 -21.5t-34.5 -11.5v147z" />
    <glyph glyph-name="asciicircum" unicode="^" horiz-adv-x="600" 
d="M73 375l174 365h106l174 -365h-120l-107 248l-108 -248h-119z" />
    <glyph glyph-name="underscore" unicode="_" horiz-adv-x="500" 
d="M0 -125v50h500v-50h-500z" />
    <glyph glyph-name="grave" unicode="`" horiz-adv-x="420" 
d="M107 851l222 -135l-53 -92l-226 125z" />
    <glyph glyph-name="a" unicode="a" horiz-adv-x="660" 
d="M487 279q0 43 -14 75.5t-37 54t-52 32.5t-59 11q-41 0 -72 -16t-51.5 -41.5t-31 -57t-10.5 -62.5q0 -35 12.5 -66.5t34.5 -54.5t52 -36.5t66 -13.5q34 0 64 13t51.5 36t34 55t12.5 71zM613 0h-122v69q-16 -19 -38.5 -35t-48 -27.5t-53.5 -18t-54 -6.5q-54 0 -102.5 20.5
t-86 59.5t-59.5 94.5t-22 124.5q0 64 22 117.5t59.5 92.5t88 61t108.5 22q42 0 75.5 -13t57 -28.5t36.5 -30t15 -17.5h2v70h122v-555z" />
    <glyph glyph-name="b" unicode="b" horiz-adv-x="660" 
d="M172 285q0 -46 15 -80t39 -56.5t54 -33.5t59 -11q33 0 62 12t50.5 35t34.5 55t13 73q0 40 -13.5 72.5t-36 54.5t-52 34t-60.5 12q-38 0 -68.5 -14.5t-52 -38.5t-33 -54t-11.5 -60zM47 740h133v-235q35 35 80.5 52t92.5 17q63 0 114.5 -25.5t88 -66.5t56.5 -94t20 -108
q0 -42 -14.5 -93.5t-47.5 -97t-85.5 -76.5t-128.5 -31q-40 0 -69.5 8t-51.5 20.5t-38 27.5t-28 29v-67h-122v740z" />
    <glyph glyph-name="c" unicode="c" horiz-adv-x="640" 
d="M610 181q-34 -94 -107 -146.5t-171 -52.5q-53 0 -106 20.5t-95 59.5t-68 94t-26 124q0 64 24.5 118t65 93t94 61t110.5 22q26 0 65 -7.5t79.5 -29.5t77 -62t57.5 -104h-150q-6 10 -15.5 24t-24.5 27t-36.5 21.5t-52.5 8.5q-30 0 -59 -11t-51.5 -33t-36.5 -54.5t-14 -75.5
q0 -36 12 -67.5t34 -55t52.5 -37.5t68.5 -14q33 0 65 17.5t58 59.5h150z" />
    <glyph glyph-name="d" unicode="d" horiz-adv-x="660" 
d="M167 282q0 -39 13.5 -71.5t36 -56t52 -37t62.5 -13.5q37 0 67.5 15.5t52 40t33 55.5t11.5 63q0 34 -12.5 65.5t-34.5 55.5t-52 38.5t-65 14.5q-37 0 -67.5 -15.5t-52 -40t-33 -55t-11.5 -59.5zM618 0h-122v68h-2q-9 -15 -25 -30.5t-38 -27.5t-50.5 -20t-63.5 -8
q-53 0 -104 21t-90.5 59.5t-64 93t-24.5 121.5q0 70 25.5 125t66 93.5t91 58.5t100.5 20q61 0 100 -18.5t68 -49.5v234h133v-740z" />
    <glyph glyph-name="e" unicode="e" horiz-adv-x="640" 
d="M474 325q-6 33 -20 57t-34 39.5t-44.5 23t-51.5 7.5q-20 0 -43.5 -5.5t-45.5 -19.5t-40.5 -38.5t-27.5 -63.5h307zM171 218q2 -14 13 -33.5t30 -37.5t46.5 -30.5t63.5 -12.5q89 0 128 71h140q-12 -38 -37 -72.5t-60 -61.5t-78.5 -43t-92.5 -16q-63 0 -117 23t-93 63
t-61 93.5t-22 114.5q0 59 21 113t59 95t92 65.5t120 24.5q68 0 121.5 -25.5t90 -66.5t56 -93t19.5 -104q0 -20 -2.5 -36.5t-5.5 -30.5h-431z" />
    <glyph glyph-name="f" unicode="f" horiz-adv-x="280" 
d="M62 437h-47v118h47q1 14 3.5 33t9 40t19 42t33.5 40q23 22 54 33.5t62 11.5h37v-131q-19 0 -34 -1.5t-26 -8t-17.5 -20.5t-7.5 -39h78v-118h-78v-437h-133v437z" />
    <glyph glyph-name="g" unicode="g" horiz-adv-x="660" 
d="M490 283q0 30 -11.5 60t-33 54t-51.5 39.5t-67 15.5q-30 0 -59 -12t-52 -34t-37 -53.5t-14 -70.5q0 -42 14.5 -75.5t38 -56t53.5 -34.5t60 -12t58.5 12.5t51 35.5t36 56t13.5 75zM623 555v-453q0 -67 -15 -117t-40 -86.5t-57 -60.5t-65.5 -38t-66.5 -20t-59 -6
q-43 0 -85 11.5t-79 34t-67 57t-48 81.5h152q19 -23 40 -35.5t40 -18.5t34 -7t23 -1q28 0 57 10t53.5 31t40.5 54t19 78l-2 2q-7 -9 -20.5 -24.5t-35 -29.5t-53 -24.5t-73.5 -10.5q-51 0 -101.5 21t-91 60t-66 94.5t-25.5 125.5q0 65 24.5 118.5t64 92t90.5 59.5t104 21
q43 0 74 -10.5t52 -25t33 -29t18 -22.5h2v68h129z" />
    <glyph glyph-name="h" unicode="h" horiz-adv-x="600" 
d="M54 740h133v-224q6 6 18 16t29.5 19t41.5 16t55 7q23 0 47 -6t46.5 -17.5t42.5 -27t35 -34.5q16 -21 25 -45.5t13.5 -48.5t5 -45.5t0.5 -36.5v-313h-133v284q0 22 -2.5 51.5t-13.5 55t-34 43.5t-64 18q-42 0 -65 -20t-33.5 -47.5t-12 -56t-1.5 -46.5v-282h-133v740z" />
    <glyph glyph-name="i" unicode="i" horiz-adv-x="240" 
d="M53 740h133v-122h-133v122zM53 555h133v-555h-133v555z" />
    <glyph glyph-name="j" unicode="j" horiz-adv-x="260" 
d="M72 740h133v-122h-133v122zM205 555v-531q0 -46 -13 -84t-38 -66t-60 -43.5t-78 -15.5v130q16 2 26.5 5t17 11t9.5 23.5t3 42.5v528h133z" />
    <glyph glyph-name="k" unicode="k" horiz-adv-x="580" 
d="M80 740h133v-446h2l177 261h153l-200 -272l226 -283h-168l-188 260h-2v-260h-133v740z" />
    <glyph glyph-name="l" unicode="l" horiz-adv-x="240" 
d="M54 740h133v-740h-133v740z" />
    <glyph glyph-name="m" unicode="m" horiz-adv-x="940" 
d="M54 555h122v-47h2q4 7 13.5 18t27 21.5t43 18.5t61.5 8q11 0 30 -2.5t41.5 -11t45.5 -26t43 -47.5q22 31 47 48.5t49.5 26t46 10.5t36.5 2q41 0 72 -9.5t53 -23t36 -28.5t22 -25q17 -22 29.5 -62t12.5 -102v-324h-133v308q0 12 -1.5 36t-11.5 48t-31.5 42t-60.5 18
q-28 0 -53 -14t-39 -38q-14 -23 -17 -55t-3 -58v-287h-133v308q0 28 -6 54.5t-19 46t-34 31.5t-52 12q-40 0 -61.5 -19t-31.5 -46.5t-11.5 -57.5t-1.5 -52v-277h-133v555z" />
    <glyph glyph-name="n" unicode="n" horiz-adv-x="600" 
d="M54 555h123v-48q8 8 21 19.5t31.5 22t43 18t56.5 7.5q18 0 40 -4t44.5 -13.5t44 -24t38.5 -35.5q19 -23 29.5 -50.5t15 -54.5t5.5 -51.5t1 -40.5v-300h-133v274q0 17 -2 47t-12.5 59t-33 50.5t-64.5 21.5q-18 0 -45.5 -10.5t-45.5 -38.5q-9 -13 -14 -29.5t-7 -35
t-2.5 -37.5t-0.5 -37v-264h-133v555z" />
    <glyph glyph-name="o" unicode="o" horiz-adv-x="640" 
d="M321 104q36 0 66 14.5t51 38.5t32.5 55t11.5 64q0 38 -13.5 70t-36 55.5t-51.5 37t-60 13.5q-26 0 -54.5 -11t-52.5 -33t-40 -55t-16 -76q0 -39 13.5 -71t36.5 -54.5t52 -35t61 -12.5zM321 -18q-62 0 -116 23.5t-94 64t-63 94t-23 113.5q0 63 24 117.5t64.5 94t94 62.5
t113.5 23q59 0 112 -22t93.5 -61.5t64.5 -93.5t24 -118q0 -68 -24.5 -123t-65 -93.5t-93.5 -59.5t-111 -21z" />
    <glyph glyph-name="p" unicode="p" horiz-adv-x="660" 
d="M172 278q0 -46 16.5 -79t41 -54t52.5 -31t52 -10q27 0 55.5 11t52 33t39 54.5t15.5 75.5q0 38 -13.5 70t-36 55t-51 36t-59.5 13t-60.5 -12t-52.5 -34.5t-37 -55t-14 -72.5zM47 555h122v-65h2q25 31 52.5 48.5t52.5 25t45 9t30 1.5q68 0 120 -26.5t87 -69t53 -95
t18 -103.5q0 -62 -21.5 -116t-59 -94.5t-88 -64t-109.5 -23.5q-35 0 -61.5 6.5t-46.5 16.5t-35 23t-28 25v-238h-133v740z" />
    <glyph glyph-name="q" unicode="q" horiz-adv-x="660" 
d="M164 280q0 -42 14 -75t36.5 -55.5t52 -34t60.5 -11.5q35 0 64.5 14.5t50.5 38.5t33 55.5t12 64.5t-11.5 64t-32.5 56t-50.5 40t-66.5 15q-36 0 -65.5 -14t-51 -38t-33.5 -55t-12 -65zM613 555v-740h-133v238q-24 -27 -51.5 -41t-51.5 -21t-42 -8t-24 -1
q-63 0 -114.5 25.5t-88.5 67.5t-57 96.5t-20 111.5q0 60 22.5 112.5t61 92.5t89.5 63t108 23q42 0 72.5 -10t51.5 -24t33.5 -29.5t19.5 -25.5h2v70h122z" />
    <glyph glyph-name="r" unicode="r" horiz-adv-x="320" 
d="M63 555h122v-49h2q9 13 19 25.5t23.5 22t32 15t44.5 5.5h11v-129q-45 -2 -70 -18.5t-36 -37.5t-13 -43t-2 -34v-312h-133v555z" />
    <glyph glyph-name="s" unicode="s" horiz-adv-x="440" 
d="M276 404q-3 16 -10 26t-14.5 14.5t-15.5 6t-13 1.5q-25 0 -38 -15.5t-13 -32.5q0 -12 4.5 -20t15.5 -14.5t29 -12.5l45 -15q26 -8 53.5 -19t50 -30t37 -47t14.5 -70q0 -47 -17 -83t-44.5 -61t-62 -37.5t-70.5 -12.5q-21 0 -43.5 4t-44 12.5t-42 22.5t-36.5 34
q-26 32 -33 63t-9 57h136q2 -9 6 -21.5t12 -23.5t21 -18.5t34 -7.5q16 0 27.5 5.5t18.5 14t10.5 18t3.5 18.5q0 15 -6 25.5t-20.5 19.5t-38.5 17.5t-60 20.5q-24 8 -46 21t-39.5 32.5t-28 45.5t-10.5 60q0 40 16.5 72t43 54.5t60 34t66.5 11.5q31 0 62.5 -11t57 -32.5
t42.5 -53.5t19 -73h-130z" />
    <glyph glyph-name="t" unicode="t" horiz-adv-x="300" 
d="M86 437h-65v118h65v185h133v-185h80v-118h-80v-437h-133v437z" />
    <glyph glyph-name="u" unicode="u" horiz-adv-x="600" 
d="M544 555v-555h-122v56h-2q-8 -11 -19.5 -24t-28.5 -24t-40 -18.5t-55 -7.5q-38 0 -68 8.5t-52.5 21.5t-39 28.5t-26.5 29.5q-15 22 -23.5 49t-12.5 53.5t-4.5 51t-0.5 41.5v290h133v-283q0 -17 2 -45.5t12.5 -55.5t34 -47t67.5 -20q31 0 52.5 13.5t35 37t19 53.5t5.5 63
v284h133z" />
    <glyph glyph-name="v" unicode="v" 
d="M3 555h144l134 -368h3l126 368h146l-225 -555h-104z" />
    <glyph glyph-name="w" unicode="w" horiz-adv-x="800" 
d="M11 555h142l101 -339h2l91 339h106l90 -339h2l102 339h142l-203 -555h-82l-104 360h-2l-105 -360h-82z" />
    <glyph glyph-name="x" unicode="x" 
d="M200 286l-172 269h149l102 -167l101 167h149l-172 -269l199 -286h-158l-119 190l-118 -190h-158z" />
    <glyph glyph-name="y" unicode="y" horiz-adv-x="580" 
d="M211 52l-203 503h152l126 -356l134 356h151l-319 -740h-143z" />
    <glyph glyph-name="z" unicode="z" horiz-adv-x="460" 
d="M20 122l246 311h-218v122h377v-122l-246 -311h263v-122h-422v122z" />
    <glyph glyph-name="braceleft" unicode="{" horiz-adv-x="340" 
d="M-3 332q9 0 25.5 2t32 8t27.5 18t12 33v216q0 36 15 62t36 43t43.5 25t38.5 8h90v-90h-45q-14 0 -22 -6.5t-12.5 -16t-5.5 -21t-1 -21.5v-212q0 -29 -12.5 -47.5t-31 -29t-40.5 -14.5t-41 -5v-3q19 -1 41 -4.5t40.5 -14t31 -30.5t12.5 -56v-212q0 -10 1 -21.5t5.5 -21
t12.5 -16t22 -6.5h45v-90h-90q-16 0 -38.5 8t-43.5 25t-36 43t-15 62v216q0 24 -12 37.5t-27.5 21t-32 9.5t-25.5 2v99z" />
    <glyph glyph-name="bar" unicode="|" horiz-adv-x="600" 
d="M366 750v-1000h-133v1000h133z" />
    <glyph glyph-name="braceright" unicode="}" horiz-adv-x="340" 
d="M343 233q-9 0 -25.5 -2t-32 -9.5t-27.5 -21t-12 -37.5v-216q0 -36 -15 -62t-36 -43t-43.5 -25t-38.5 -8h-90v90h45q14 0 22 6.5t12.5 16t5.5 21t1 21.5v212q0 36 12.5 56t31 30.5t40.5 14t41 4.5v3q-19 1 -41 5t-40.5 14.5t-31 29t-12.5 47.5v212q0 10 -1 21.5t-5.5 21
t-12.5 16t-22 6.5h-45v90h90q16 0 38.5 -8t43.5 -25t36 -43t15 -62v-216q0 -21 12 -33t27.5 -18t32 -8t25.5 -2v-99z" />
    <glyph glyph-name="asciitilde" unicode="~" horiz-adv-x="600" 
d="M533 249q-12 -16 -24.5 -32t-27.5 -28.5t-33.5 -20t-41.5 -7.5q-28 0 -52.5 9.5t-49.5 23.5q-24 14 -52 24.5t-63 10.5q-33 0 -52.5 -22t-33.5 -47l-36 96q9 16 20.5 32t27 29t35 20.5t44.5 7.5q26 0 54 -9.5t57 -22.5q28 -12 55 -24t47 -12q30 0 50.5 22t39.5 48z" />
    <glyph glyph-name="exclamdown" unicode="&#xa1;" horiz-adv-x="280" 
d="M207 555v-127h-133v127h133zM207 366v-551h-133v551h133z" />
    <glyph glyph-name="cent" unicode="&#xa2;" 
d="M223 39v109q-44 9 -77.5 34t-56.5 58t-34.5 70.5t-11.5 72.5q0 40 13.5 78t37.5 69t57 53t72 30v102h126v-102q30 -10 55.5 -21.5t52.5 -40.5q23 -23 38.5 -50t21.5 -58h-140q-14 22 -40.5 34t-52.5 12q-22 0 -41.5 -8t-34.5 -23t-23.5 -35t-8.5 -44q0 -47 31.5 -78
t78.5 -31q32 0 50.5 12.5t34.5 27.5h146q-19 -47 -41.5 -76.5t-45.5 -47t-44 -25.5t-37 -13v-109h-126z" />
    <glyph glyph-name="sterling" unicode="&#xa3;" 
d="M38 126h139q14 25 16.5 44t2.5 28q0 41 -19 67.5t-38 45.5h-141v126h56q-5 12 -10.5 31t-5.5 49q0 45 18 87.5t49.5 76t75.5 54t97 20.5q58 0 102 -23.5t73.5 -57t44.5 -70t15 -61.5h-135q-9 44 -39 65t-60 21q-28 0 -48 -11t-33.5 -28.5t-20 -38.5t-6.5 -41
q0 -42 28 -73h208v-126h-109q8 -16 14 -29t9.5 -26t5.5 -28t2 -36q0 -25 -3 -39.5t-8 -26.5h11q29 0 48 10.5t30.5 26t16.5 32.5t5 30q0 9 -2 19.5t-8 30.5h133q7 -14 8.5 -31.5t1.5 -19.5q0 -31 -11.5 -69.5t-39.5 -73t-74 -58t-115 -23.5h-284v126z" />
    <glyph glyph-name="currency" unicode="&#xa4;" 
d="M188 323q0 -39 26.5 -66t65.5 -27t65.5 27t26.5 66t-26.5 66t-65.5 27t-65.5 -27t-26.5 -66zM96 208q-14 23 -22.5 52.5t-8.5 62.5q0 34 9 64t22 51l-69 69l69 70l69 -70q23 14 52.5 22.5t62.5 8.5q34 0 63.5 -8.5t51.5 -22.5l70 70l69 -70l-70 -69q14 -22 22.5 -51.5
t8.5 -63.5t-8.5 -63.5t-22.5 -50.5l70 -71l-69 -69l-70 71q-22 -14 -51.5 -23t-63.5 -9q-33 0 -62.5 8.5t-52.5 22.5l-69 -70l-69 69z" />
    <glyph glyph-name="yen" unicode="&#xa5;" 
d="M347 0h-133v189h-166v105h166v33l-32 57h-142v105h88l-138 251h137l154 -288l155 288h134l-138 -251h88v-105h-142l-31 -57v-33h164v-105h-164v-189z" />
    <glyph glyph-name="brokenbar" unicode="&#xa6;" horiz-adv-x="600" 
d="M366 175v-350h-133v350h133zM366 675v-350h-133v350h133z" />
    <glyph glyph-name="section" unicode="&#xa7;" 
d="M193 420q-5 -3 -12 -10t-13 -15.5t-10.5 -19t-4.5 -20.5q0 -15 12.5 -30.5t44.5 -31.5l155 -79q14 11 27 26.5t13 38.5q0 24 -18.5 38t-39.5 25zM371 567q-2 8 -5.5 19t-12.5 21.5t-24 18t-40 7.5q-23 0 -37.5 -5.5t-23 -14t-12 -18.5t-3.5 -18q0 -23 20 -38t43 -25
l164 -84q29 -15 47 -34.5t27.5 -39t12.5 -37t3 -28.5q0 -29 -18 -68t-64 -73q17 -17 33.5 -45t16.5 -75q0 -43 -16.5 -77.5t-46 -59t-68.5 -38t-84 -13.5q-46 0 -86 14.5t-70.5 41.5t-48.5 66.5t-20 89.5h125v-7q1 -23 11 -39t24.5 -26t32 -14t33.5 -4q37 0 63 18t26 47
q0 27 -20.5 42t-51.5 31l-166 88q-54 28 -80.5 68.5t-26.5 88.5q0 33 10.5 58t24.5 42.5t29.5 29t24.5 17.5q-11 17 -20 39t-9 55q0 44 17.5 75.5t46 52t64.5 30t72 9.5q47 0 80.5 -11.5t56 -30t36.5 -40.5t21.5 -42.5t10 -38t3.5 -25.5h-125z" />
    <glyph glyph-name="dieresis" unicode="&#xa8;" horiz-adv-x="500" 
d="M289 769h133v-133h-133v133zM78 769h134v-133h-134v133z" />
    <glyph glyph-name="copyright" unicode="&#xa9;" horiz-adv-x="740" 
d="M370 666q-62 0 -115.5 -23.5t-92.5 -64t-61.5 -94.5t-22.5 -114q0 -61 22.5 -115t62 -94t93 -63.5t114.5 -23.5t114 23t92.5 63.5t62.5 94t23 115.5q0 60 -22.5 114t-61.5 94.5t-92.5 64t-115.5 23.5zM371 752q79 0 148.5 -30.5t121.5 -82.5t81.5 -121.5t29.5 -147.5
q0 -80 -30.5 -149.5t-82 -121t-121 -81.5t-147.5 -30q-80 0 -150 30.5t-122 82.5t-81.5 121.5t-29.5 147.5t29.5 147.5t81.5 121.5t121.5 82.5t150.5 30.5zM478 447q-16 47 -42 62t-60 15q-57 0 -91 -42t-34 -111q0 -76 34.5 -114.5t90.5 -38.5q35 0 61.5 15t40.5 62h90
q-3 -30 -18.5 -57.5t-40.5 -48.5t-59 -33.5t-74 -12.5q-49 0 -89 17.5t-68 48t-43 72t-15 90.5t15 90.5t43 72t68 48t89 17.5q40 0 74 -12.5t59 -33.5t40.5 -48.5t18.5 -57.5h-90z" />
    <glyph glyph-name="ordfeminine" unicode="&#xaa;" horiz-adv-x="360" 
d="M248 597q0 36 -22 54.5t-48 18.5q-17 0 -30 -7t-21.5 -17.5t-13 -24t-4.5 -26.5q0 -29 19.5 -50.5t49.5 -21.5q29 0 49.5 21t20.5 53zM334 448h-88v25h-2q-10 -15 -28.5 -25t-47.5 -10t-56 11t-47.5 32t-33 50.5t-12.5 66.5q0 34 12 63t32.5 50t47.5 32.5t57 11.5
q28 0 47.5 -11t28.5 -25h2v26h88v-297z" />
    <glyph glyph-name="guillemotleft" unicode="&#xab;" horiz-adv-x="460" 
d="M260 239v101l140 129v-123l-68 -57l68 -58v-123zM61 239v101l140 129v-123l-68 -57l68 -58v-123z" />
    <glyph glyph-name="logicalnot" unicode="&#xac;" horiz-adv-x="600" 
d="M432 305h-384v120h504v-317h-120v197z" />
    <glyph glyph-name="registered" unicode="&#xae;" horiz-adv-x="740" 
d="M370 666q-62 0 -115.5 -23.5t-92.5 -64t-61.5 -94.5t-22.5 -114q0 -61 22.5 -115t62 -94t93 -63.5t114.5 -23.5t114 23t92.5 63.5t62.5 94t23 115.5q0 60 -22.5 114t-61.5 94.5t-92.5 64t-115.5 23.5zM371 752q79 0 148.5 -30.5t121.5 -82.5t81.5 -121.5t29.5 -147.5
q0 -80 -30.5 -149.5t-82 -121t-121 -81.5t-147.5 -30q-80 0 -150 30.5t-122 82.5t-81.5 121.5t-29.5 147.5t29.5 147.5t81.5 121.5t121.5 82.5t150.5 30.5zM294 393h78q12 0 26.5 1t27 7.5t21.5 21t9 40.5q-4 34 -25 42.5t-49 8.5h-88v-121zM391 585q10 0 35.5 -2t51.5 -13
t46.5 -35t20.5 -69q0 -36 -18 -65.5t-63 -40.5v-2q22 -6 36 -16t22 -23.5t11 -31t4 -38.5q1 -28 2 -44.5t2.5 -27t3.5 -16.5t6 -13h-89q-3 5 -5 10.5t-3.5 14.5t-2.5 22t-2 34q-1 26 -5 43t-12.5 27.5t-23 16t-37.5 7.5h-77v-175h-87v437h184z" />
    <glyph glyph-name="macron" unicode="&#xaf;" horiz-adv-x="420" 
d="M72 759h277v-111h-277v111z" />
    <glyph glyph-name="macron" unicode="&#x2c9;" horiz-adv-x="420" 
d="M72 759h277v-111h-277v111z" />
    <glyph glyph-name="degree" unicode="&#xb0;" horiz-adv-x="400" 
d="M200 426q-30 0 -56 11t-45.5 30.5t-30.5 45.5t-11 56t11 56t30.5 45.5t45.5 30.5t56 11t56 -11t45.5 -30.5t30.5 -45.5t11 -56t-11 -56t-30.5 -45.5t-45.5 -30.5t-56 -11zM200 495q29 0 50 22.5t21 51.5q0 14 -5.5 27.5t-15.5 24t-22.5 16.5t-27.5 6t-27.5 -6
t-22.5 -16.5t-15.5 -24t-5.5 -27.5q0 -29 21 -51.5t50 -22.5z" />
    <glyph glyph-name="plusminus" unicode="&#xb1;" horiz-adv-x="600" 
d="M48 58h504v-120h-504v120zM240 556h120v-156h192v-120h-192v-150h-120v150h-192v120h192v156z" />
    <glyph glyph-name="twosuperior" unicode="&#xb2;" horiz-adv-x="336" 
d="M18 377l159 147q30 26 39.5 44.5t9.5 35.5q0 30 -18.5 44.5t-40.5 14.5q-19 -1 -30.5 -8.5t-17.5 -19t-8 -24t-2 -22.5v-6h-95q-1 6 -1 9v9q0 26 10.5 52.5t30 47.5t48 34.5t65.5 13.5q36 0 64.5 -12.5t49 -33.5t31 -47.5t10.5 -53.5q0 -35 -18.5 -71t-68.5 -79l-80 -70
h167v-86h-304v81z" />
    <glyph glyph-name="threesuperior" unicode="&#xb3;" horiz-adv-x="336" 
d="M133 589h22q17 0 30.5 9t13.5 30q0 35 -34 35q-10 0 -15.5 -4.5t-8.5 -10.5t-3.5 -12t-0.5 -9h-96q2 43 20 67.5t39 36.5q20 12 39.5 15t27.5 3q27 0 50.5 -10t41 -27t27 -39t9.5 -46q0 -4 -0.5 -12.5t-3.5 -19t-10 -22.5t-20 -22q22 -10 35.5 -25.5t20.5 -32.5t9 -32
t2 -24q0 -35 -13.5 -62.5t-36 -47t-52 -30t-60.5 -10.5q-28 0 -55.5 9t-49.5 27.5t-36.5 46.5t-16.5 65h96q1 -18 8 -29.5t17 -19t20.5 -10.5t19.5 -3q24 0 43.5 16.5t19.5 46.5q0 12 -3.5 24t-12.5 21.5t-24 15.5t-38 6h-21v86z" />
    <glyph glyph-name="acute" unicode="&#xb4;" horiz-adv-x="420" 
d="M89 716l222 135l57 -102l-226 -125z" />
    <glyph glyph-name="mu" unicode="&#xb5;" horiz-adv-x="600" 
d="M422 0v56h-2q-8 -11 -19.5 -24t-28.5 -24t-40 -18.5t-55 -7.5q-34 0 -59 20.5t-35 55.5v-250h-133v747h133v-283q0 -17 2 -45.5t12.5 -55.5t34 -47t67.5 -20q31 0 52.5 13.5t35 37t19 53.5t5.5 63v284h133v-555h-122z" />
    <glyph glyph-name="mu" unicode="&#x3bc;" horiz-adv-x="600" 
d="M422 0v56h-2q-8 -11 -19.5 -24t-28.5 -24t-40 -18.5t-55 -7.5q-34 0 -59 20.5t-35 55.5v-250h-133v747h133v-283q0 -17 2 -45.5t12.5 -55.5t34 -47t67.5 -20q31 0 52.5 13.5t35 37t19 53.5t5.5 63v284h133v-555h-122z" />
    <glyph glyph-name="paragraph" unicode="&#xb6;" horiz-adv-x="600" 
d="M205 355h-14q-32 0 -66.5 9.5t-64 31.5t-48.5 58.5t-19 89.5q0 47 13.5 80t36 55t50 34t56 18t54.5 7.5t44 1.5h360v-103h-79v-740h-113v740h-97v-740h-113v458z" />
    <glyph glyph-name="periodcentered" unicode="&#xb7;" horiz-adv-x="280" 
d="M73 320h133v-133h-133v133z" />
    <glyph glyph-name="periodcentered" unicode="&#x2219;" horiz-adv-x="280" 
d="M73 320h133v-133h-133v133z" />
    <glyph glyph-name="cedilla" unicode="&#xb8;" horiz-adv-x="340" 
d="M204 -1l-24 -54q5 1 11 1.5t14 0.5q36 0 64.5 -25.5t28.5 -74.5q0 -48 -29.5 -73t-70.5 -25q-26 0 -45 9.5t-31 23t-18 28.5t-6 26h53q3 -17 16 -27t31 -10q20 0 33 13.5t13 34.5q0 20 -13.5 35t-33.5 15q-11 0 -23 -4t-20 -18l-49 19l49 112z" />
    <glyph glyph-name="onesuperior" unicode="&#xb9;" horiz-adv-x="336" 
d="M127 654h-55v86h151v-444h-96v358z" />
    <glyph glyph-name="ordmasculine" unicode="&#xba;" horiz-adv-x="360" 
d="M181 523q30 0 48.5 22t18.5 50q0 33 -20.5 54t-46.5 21q-11 0 -23 -4.5t-22 -13.5t-16.5 -23t-6.5 -33q0 -32 21 -52.5t47 -20.5zM181 438q-33 0 -62 12.5t-50 34.5t-33.5 50.5t-12.5 60.5q0 34 12.5 63t34.5 50.5t50.5 33.5t60.5 12q31 0 59.5 -12t50.5 -33t34.5 -50
t12.5 -63q0 -36 -13 -65.5t-35 -50.5t-50 -32t-59 -11z" />
    <glyph glyph-name="guillemotright" unicode="&#xbb;" horiz-adv-x="460" 
d="M260 231l68 58l-68 57v123l140 -129v-101l-140 -131v123zM61 231l68 58l-68 57v123l140 -129v-101l-140 -131v123z" />
    <glyph glyph-name="onequarter" unicode="&#xbc;" horiz-adv-x="840" 
d="M147 654h-55v86h151v-444h-96v358zM621 444h76v-297h49v-82h-49v-65h-90v65h-198v70zM607 147v159h-2l-97 -159h99zM493 740h99l-307 -740h-98z" />
    <glyph glyph-name="onehalf" unicode="&#xbd;" horiz-adv-x="840" 
d="M467 81l159 147q30 26 39.5 44.5t9.5 35.5q0 30 -18.5 44.5t-40.5 14.5q-19 -1 -30.5 -8.5t-17.5 -19t-8 -24t-2 -22.5v-6h-95q-1 6 -1 9v9q0 26 10.5 52.5t30 47.5t48 34.5t65.5 13.5q36 0 64.5 -12.5t49 -33.5t31 -47.5t10.5 -53.5q0 -35 -18.5 -71t-68.5 -79l-80 -70
h167v-86h-304v81zM117 654h-55v86h151v-444h-96v358zM463 740h99l-307 -740h-98z" />
    <glyph glyph-name="threequarters" unicode="&#xbe;" horiz-adv-x="840" 
d="M143 589h22q17 0 30.5 9t13.5 30q0 35 -34 35q-10 0 -15.5 -4.5t-8.5 -10.5t-3.5 -12t-0.5 -9h-96q2 43 20 67.5t39 36.5q20 12 39.5 15t27.5 3q27 0 50.5 -10t41 -27t27 -39t9.5 -46q0 -4 -0.5 -12.5t-3.5 -19t-10 -22.5t-20 -22q22 -10 35.5 -25.5t20.5 -32.5t9 -32
t2 -24q0 -35 -13.5 -62.5t-36 -47t-52 -30t-60.5 -10.5q-28 0 -55.5 9t-49.5 27.5t-36.5 46.5t-16.5 65h96q1 -18 8 -29.5t17 -19t20.5 -10.5t19.5 -3q24 0 43.5 16.5t19.5 46.5q0 12 -3.5 24t-12.5 21.5t-24 15.5t-38 6h-21v86zM678 444h76v-297h49v-82h-49v-65h-90v65
h-198v70zM550 740h99l-307 -740h-98zM664 147v159h-2l-97 -159h99z" />
    <glyph glyph-name="questiondown" unicode="&#xbf;" 
d="M366 422h-133v133h133v-133zM366 368v-29q0 -53 -19 -105t-70 -95q-35 -29 -55.5 -53t-20.5 -58q0 -29 9.5 -47.5t24 -29t30.5 -14.5t30 -4q29 0 46.5 9.5t27 24.5t13.5 32t6 32h133q-5 -58 -22.5 -97.5t-42.5 -65t-52.5 -39.5t-51.5 -20.5t-41 -7.5t-20 -1
q-43 0 -83.5 15t-71.5 44.5t-49.5 72t-18.5 96.5q0 18 3 37t13.5 40.5t30.5 47.5t54 57q13 11 24.5 22t20.5 25.5t14 32.5t5 44v34h133z" />
    <glyph glyph-name="Agrave" unicode="&#xc0;" horiz-adv-x="740" 
d="M267 1021l222 -135l-53 -92l-226 125zM283 320h170l-84 227h-2zM315 740h107l310 -740h-151l-79 191h-265l-79 -191h-151z" />
    <glyph glyph-name="Aacute" unicode="&#xc1;" horiz-adv-x="740" 
d="M249 886l222 135l57 -102l-226 -125zM283 320h170l-84 227h-2zM315 740h107l310 -740h-151l-79 191h-265l-79 -191h-151z" />
    <glyph glyph-name="Acircumflex" unicode="&#xc2;" horiz-adv-x="740" 
d="M319 944h105l146 -138h-145l-53 64l-56 -64h-145zM283 320h170l-84 227h-2zM315 740h107l310 -740h-151l-79 191h-265l-79 -191h-151z" />
    <glyph glyph-name="Atilde" unicode="&#xc3;" horiz-adv-x="740" 
d="M174 894q39 29 70.5 36t45.5 7q22 0 40 -4.5t42 -11.5q30 -9 43 -11t22 -2q41 0 76 23l54 -78q-23 -18 -49.5 -32.5t-64.5 -14.5q-9 0 -17 1t-18 3t-24 5.5t-35 9.5q-10 3 -22 5.5t-29 2.5q-32 0 -51.5 -7.5t-28.5 -12.5zM283 320h170l-84 227h-2zM315 740h107l310 -740
h-151l-79 191h-265l-79 -191h-151z" />
    <glyph glyph-name="Adieresis" unicode="&#xc4;" horiz-adv-x="740" 
d="M409 939h133v-133h-133v133zM198 939h134v-133h-134v133zM283 320h170l-84 227h-2zM315 740h107l310 -740h-151l-79 191h-265l-79 -191h-151z" />
    <glyph glyph-name="Aring" unicode="&#xc5;" horiz-adv-x="740" 
d="M330 861q0 -17 11.5 -28.5t28.5 -11.5t29 11.5t12 28.5t-12 29t-29 12t-28.5 -12t-11.5 -29zM263 861q0 22 8.5 42t23 34.5t34 23t41.5 8.5t42 -8.5t34.5 -23t23 -34.5t8.5 -42t-8.5 -41.5t-23.5 -34t-34.5 -23t-41.5 -8.5t-41.5 8.5t-34 23t-23 34t-8.5 41.5zM283 320
h170l-84 227h-2zM315 740h107l310 -740h-151l-79 191h-265l-79 -191h-151z" />
    <glyph glyph-name="AE" unicode="&#xc6;" horiz-adv-x="900" 
d="M352 319h115v195h-2zM484 740h340v-128h-220v-181h209v-128h-209v-175h220v-128h-357v191h-196l-115 -191h-161z" />
    <glyph glyph-name="Ccedilla" unicode="&#xc7;" horiz-adv-x="780" 
d="M361 -164q3 -17 16 -27t31 -10q20 0 33 13.5t13 34.5q0 20 -13.5 35t-33.5 15q-11 0 -23 -4t-20 -18l-49 19l42 97q-69 12 -128 46.5t-102.5 85.5t-68 115t-24.5 135q0 76 29.5 145.5t81.5 122t122 83.5t150 31q46 0 96.5 -12.5t97.5 -39.5t87.5 -70t67.5 -104h-156
q-40 46 -88 72t-110 26q-45 0 -88.5 -19t-77 -53.5t-54.5 -81.5t-21 -102q0 -52 20 -99t54 -82t78.5 -56t93.5 -21q37 0 66 9.5t51.5 24t39.5 30.5t29 29h159q-22 -51 -58 -92t-81.5 -69.5t-97.5 -44t-105 -15.5q-8 0 -12 1l-18 -41q5 1 11 1.5t14 0.5q36 0 64.5 -25.5
t28.5 -74.5q0 -48 -29.5 -73t-70.5 -25q-26 0 -45 9.5t-31 23t-18 28.5t-6 26h53z" />
    <glyph glyph-name="Egrave" unicode="&#xc8;" horiz-adv-x="520" 
d="M157 1021l222 -135l-53 -92l-226 125zM61 740h398v-128h-261v-181h250v-128h-250v-175h261v-128h-398v740z" />
    <glyph glyph-name="Eacute" unicode="&#xc9;" horiz-adv-x="520" 
d="M139 886l222 135l57 -102l-226 -125zM61 740h398v-128h-261v-181h250v-128h-250v-175h261v-128h-398v740z" />
    <glyph glyph-name="Ecircumflex" unicode="&#xca;" horiz-adv-x="520" 
d="M209 944h105l146 -138h-145l-53 64l-56 -64h-145zM61 740h398v-128h-261v-181h250v-128h-250v-175h261v-128h-398v740z" />
    <glyph glyph-name="Edieresis" unicode="&#xcb;" horiz-adv-x="520" 
d="M299 939h133v-133h-133v133zM88 939h134v-133h-134v133zM61 740h398v-128h-261v-181h250v-128h-250v-175h261v-128h-398v740z" />
    <glyph glyph-name="Igrave" unicode="&#xcc;" horiz-adv-x="280" 
d="M12 1021l222 -135l-53 -92l-226 125zM72 740h137v-740h-137v740z" />
    <glyph glyph-name="Iacute" unicode="&#xcd;" horiz-adv-x="280" 
d="M44 886l222 135l57 -102l-226 -125zM72 740h137v-740h-137v740z" />
    <glyph glyph-name="Icircumflex" unicode="&#xce;" horiz-adv-x="280" 
d="M89 944h105l146 -138h-145l-53 64l-56 -64h-145zM72 740h137v-740h-137v740z" />
    <glyph glyph-name="Idieresis" unicode="&#xcf;" horiz-adv-x="280" 
d="M179 939h133v-133h-133v133zM-32 939h134v-133h-134v133zM72 740h137v-740h-137v740z" />
    <glyph glyph-name="Eth" unicode="&#xd0;" horiz-adv-x="742" 
d="M234 311v-183h29q28 0 51.5 1.5t44.5 5t41.5 10.5t42.5 19q27 15 48 37.5t35 49.5t21 57t7 60q0 54 -21.5 102t-57.5 80q-43 39 -96.5 50.5t-118.5 11.5h-26v-173h137v-128h-137zM25 311v128h72v301h168q68 0 118 -8t86 -21t60 -28t40 -29q26 -23 48.5 -54t39 -68
t25.5 -79t9 -85q0 -50 -12.5 -98t-35.5 -90t-56 -76t-73 -56q-26 -14 -55.5 -23.5t-61.5 -15t-65 -7.5t-64 -2h-171v311h-72z" />
    <glyph glyph-name="Ntilde" unicode="&#xd1;" horiz-adv-x="740" 
d="M174 894q39 29 70.5 36t45.5 7q22 0 40 -4.5t42 -11.5q30 -9 43 -11t22 -2q41 0 76 23l54 -78q-23 -18 -49.5 -32.5t-64.5 -14.5q-9 0 -17 1t-18 3t-24 5.5t-35 9.5q-10 3 -22 5.5t-29 2.5q-32 0 -51.5 -7.5t-28.5 -12.5zM70 740h156l306 -538h2v538h137v-740h-153
l-309 538h-2v-538h-137v740z" />
    <glyph glyph-name="Ograve" unicode="&#xd2;" horiz-adv-x="840" 
d="M317 1021l222 -135l-53 -92l-226 125zM170 369q0 -51 19 -97.5t53 -82t79.5 -56t98.5 -20.5t98.5 20.5t79.5 56t53 82t19 97.5q0 53 -19.5 100t-53.5 82t-79.5 55.5t-97.5 20.5t-97.5 -20.5t-79.5 -55.5t-53.5 -82t-19.5 -100zM33 368q0 82 31 153t84 123t123 81.5
t149 29.5t149 -29.5t123 -81.5t84 -123t31 -153q0 -80 -30.5 -149.5t-83 -121.5t-123 -82t-150.5 -30t-150.5 30t-123 82t-83 121.5t-30.5 149.5z" />
    <glyph glyph-name="Oacute" unicode="&#xd3;" horiz-adv-x="840" 
d="M299 886l222 135l57 -102l-226 -125zM170 369q0 -51 19 -97.5t53 -82t79.5 -56t98.5 -20.5t98.5 20.5t79.5 56t53 82t19 97.5q0 53 -19.5 100t-53.5 82t-79.5 55.5t-97.5 20.5t-97.5 -20.5t-79.5 -55.5t-53.5 -82t-19.5 -100zM33 368q0 82 31 153t84 123t123 81.5
t149 29.5t149 -29.5t123 -81.5t84 -123t31 -153q0 -80 -30.5 -149.5t-83 -121.5t-123 -82t-150.5 -30t-150.5 30t-123 82t-83 121.5t-30.5 149.5z" />
    <glyph glyph-name="Ocircumflex" unicode="&#xd4;" horiz-adv-x="840" 
d="M369 944h105l146 -138h-145l-53 64l-56 -64h-145zM170 369q0 -51 19 -97.5t53 -82t79.5 -56t98.5 -20.5t98.5 20.5t79.5 56t53 82t19 97.5q0 53 -19.5 100t-53.5 82t-79.5 55.5t-97.5 20.5t-97.5 -20.5t-79.5 -55.5t-53.5 -82t-19.5 -100zM33 368q0 82 31 153t84 123
t123 81.5t149 29.5t149 -29.5t123 -81.5t84 -123t31 -153q0 -80 -30.5 -149.5t-83 -121.5t-123 -82t-150.5 -30t-150.5 30t-123 82t-83 121.5t-30.5 149.5z" />
    <glyph glyph-name="Otilde" unicode="&#xd5;" horiz-adv-x="840" 
d="M224 894q39 29 70.5 36t45.5 7q22 0 40 -4.5t42 -11.5q30 -9 43 -11t22 -2q41 0 76 23l54 -78q-23 -18 -49.5 -32.5t-64.5 -14.5q-9 0 -17 1t-18 3t-24 5.5t-35 9.5q-10 3 -22 5.5t-29 2.5q-32 0 -51.5 -7.5t-28.5 -12.5zM170 369q0 -51 19 -97.5t53 -82t79.5 -56
t98.5 -20.5t98.5 20.5t79.5 56t53 82t19 97.5q0 53 -19.5 100t-53.5 82t-79.5 55.5t-97.5 20.5t-97.5 -20.5t-79.5 -55.5t-53.5 -82t-19.5 -100zM33 368q0 82 31 153t84 123t123 81.5t149 29.5t149 -29.5t123 -81.5t84 -123t31 -153q0 -80 -30.5 -149.5t-83 -121.5t-123 -82
t-150.5 -30t-150.5 30t-123 82t-83 121.5t-30.5 149.5z" />
    <glyph glyph-name="Odieresis" unicode="&#xd6;" horiz-adv-x="840" 
d="M459 939h133v-133h-133v133zM248 939h134v-133h-134v133zM170 369q0 -51 19 -97.5t53 -82t79.5 -56t98.5 -20.5t98.5 20.5t79.5 56t53 82t19 97.5q0 53 -19.5 100t-53.5 82t-79.5 55.5t-97.5 20.5t-97.5 -20.5t-79.5 -55.5t-53.5 -82t-19.5 -100zM33 368q0 82 31 153
t84 123t123 81.5t149 29.5t149 -29.5t123 -81.5t84 -123t31 -153q0 -80 -30.5 -149.5t-83 -121.5t-123 -82t-150.5 -30t-150.5 30t-123 82t-83 121.5t-30.5 149.5z" />
    <glyph glyph-name="multiply" unicode="&#xd7;" horiz-adv-x="600" 
d="M59 412l82 82l159 -159l159 159l82 -82l-160 -159l160 -159l-82 -82l-159 160l-159 -160l-82 82l159 159z" />
    <glyph glyph-name="Oslash" unicode="&#xd8;" horiz-adv-x="840" 
d="M645 814l109 -75l-64 -94q54 -52 85.5 -123t31.5 -154q0 -80 -30.5 -149.5t-83 -121.5t-123 -82t-150.5 -30q-42 0 -81.5 8.5t-74.5 24.5l-61 -89l-110 75l60 88q-56 52 -88 123t-32 153t31 153t84 123t123 81.5t149 29.5q87 0 162 -36v1zM338 127q39 -14 82 -14
q53 0 98.5 20.5t79.5 56t53 82t19 97.5q0 47 -15 88t-41 75zM507 611q-41 16 -87 16q-52 0 -97.5 -20.5t-79.5 -55.5t-53.5 -82t-19.5 -100q0 -46 15.5 -88t44.5 -76z" />
    <glyph glyph-name="Ugrave" unicode="&#xd9;" horiz-adv-x="640" 
d="M182 1021l222 -135l-53 -92l-226 125zM192 740v-470q0 -14 2 -40t14 -52t38 -45.5t74 -19.5t74 19.5t38 45.5t14 52t2 40v470h137v-470q0 -45 -8.5 -91.5t-34.5 -83.5q-32 -45 -88.5 -77.5t-132.5 -32.5q-42 0 -77.5 10.5t-63 26.5t-47.5 34.5t-32 34.5q-18 24 -32 67
t-14 112v470h137z" />
    <glyph glyph-name="Uacute" unicode="&#xda;" horiz-adv-x="640" 
d="M234 886l222 135l57 -102l-226 -125zM192 740v-470q0 -14 2 -40t14 -52t38 -45.5t74 -19.5t74 19.5t38 45.5t14 52t2 40v470h137v-470q0 -45 -8.5 -91.5t-34.5 -83.5q-32 -45 -88.5 -77.5t-132.5 -32.5q-42 0 -77.5 10.5t-63 26.5t-47.5 34.5t-32 34.5q-18 24 -32 67
t-14 112v470h137z" />
    <glyph glyph-name="Ucircumflex" unicode="&#xdb;" horiz-adv-x="640" 
d="M269 944h105l146 -138h-145l-53 64l-56 -64h-145zM192 740v-470q0 -14 2 -40t14 -52t38 -45.5t74 -19.5t74 19.5t38 45.5t14 52t2 40v470h137v-470q0 -45 -8.5 -91.5t-34.5 -83.5q-32 -45 -88.5 -77.5t-132.5 -32.5q-42 0 -77.5 10.5t-63 26.5t-47.5 34.5t-32 34.5
q-18 24 -32 67t-14 112v470h137z" />
    <glyph glyph-name="Udieresis" unicode="&#xdc;" horiz-adv-x="640" 
d="M359 939h133v-133h-133v133zM148 939h134v-133h-134v133zM192 740v-470q0 -14 2 -40t14 -52t38 -45.5t74 -19.5t74 19.5t38 45.5t14 52t2 40v470h137v-470q0 -45 -8.5 -91.5t-34.5 -83.5q-32 -45 -88.5 -77.5t-132.5 -32.5q-42 0 -77.5 10.5t-63 26.5t-47.5 34.5
t-32 34.5q-18 24 -32 67t-14 112v470h137z" />
    <glyph glyph-name="Yacute" unicode="&#xdd;" horiz-adv-x="620" 
d="M224 886l222 135l57 -102l-226 -125zM241 273l-243 467h150l161 -340l162 340h151l-244 -467v-273h-137v273z" />
    <glyph glyph-name="Thorn" unicode="&#xde;" 
d="M209 270h44q22 0 49 2t50.5 12t39.5 30.5t16 56.5t-15.5 56.5t-38.5 30.5t-49 12t-47 2h-49v-202zM72 740h137v-140h49q30 0 57.5 -1t54.5 -6.5t53 -17.5t52 -34q36 -33 53 -75.5t17 -94.5t-17 -94.5t-53 -75.5q-26 -22 -52 -34t-53 -17.5t-54.5 -6.5t-57.5 -1h-49v-142
h-137v740z" />
    <glyph glyph-name="germandbls" unicode="&#xdf;" horiz-adv-x="600" 
d="M184 189h86q6 -37 33 -61q26 -24 59 -24q17 0 33 6.5t29 19.5t20.5 31t7.5 42q-2 39 -20 62t-46 34t-62 14t-66 3v118q52 0 76 31.5t24 73.5q0 48 -26 71t-59 23q-32 0 -49.5 -14.5t-26.5 -35t-11 -43t-2 -37.5v-314zM51 488q0 60 13 103t33.5 72.5t45.5 47.5t50 28
t47 13t36 3q42 0 81 -15t69 -43t47.5 -66.5t17.5 -85.5q0 -41 -15.5 -78.5t-50.5 -57.5q55 -14 87 -39.5t48 -54.5t20.5 -56.5t4.5 -44.5q0 -48 -14 -90.5t-42 -74t-70 -49.5t-97 -18q-15 0 -38.5 1.5t-49.5 10t-52.5 27t-46.5 52.5h-2v-73h-122v488z" />
    <glyph glyph-name="agrave" unicode="&#xe0;" horiz-adv-x="660" 
d="M227 851l222 -135l-53 -92l-226 125zM487 279q0 43 -14 75.5t-37 54t-52 32.5t-59 11q-41 0 -72 -16t-51.5 -41.5t-31 -57t-10.5 -62.5q0 -35 12.5 -66.5t34.5 -54.5t52 -36.5t66 -13.5q34 0 64 13t51.5 36t34 55t12.5 71zM613 0h-122v69q-16 -19 -38.5 -35t-48 -27.5
t-53.5 -18t-54 -6.5q-54 0 -102.5 20.5t-86 59.5t-59.5 94.5t-22 124.5q0 64 22 117.5t59.5 92.5t88 61t108.5 22q42 0 75.5 -13t57 -28.5t36.5 -30t15 -17.5h2v70h122v-555z" />
    <glyph glyph-name="aacute" unicode="&#xe1;" horiz-adv-x="660" 
d="M209 716l222 135l57 -102l-226 -125zM487 279q0 43 -14 75.5t-37 54t-52 32.5t-59 11q-41 0 -72 -16t-51.5 -41.5t-31 -57t-10.5 -62.5q0 -35 12.5 -66.5t34.5 -54.5t52 -36.5t66 -13.5q34 0 64 13t51.5 36t34 55t12.5 71zM613 0h-122v69q-16 -19 -38.5 -35t-48 -27.5
t-53.5 -18t-54 -6.5q-54 0 -102.5 20.5t-86 59.5t-59.5 94.5t-22 124.5q0 64 22 117.5t59.5 92.5t88 61t108.5 22q42 0 75.5 -13t57 -28.5t36.5 -30t15 -17.5h2v70h122v-555z" />
    <glyph glyph-name="acircumflex" unicode="&#xe2;" horiz-adv-x="660" 
d="M279 774h105l146 -138h-145l-53 64l-56 -64h-145zM487 279q0 43 -14 75.5t-37 54t-52 32.5t-59 11q-41 0 -72 -16t-51.5 -41.5t-31 -57t-10.5 -62.5q0 -35 12.5 -66.5t34.5 -54.5t52 -36.5t66 -13.5q34 0 64 13t51.5 36t34 55t12.5 71zM613 0h-122v69q-16 -19 -38.5 -35
t-48 -27.5t-53.5 -18t-54 -6.5q-54 0 -102.5 20.5t-86 59.5t-59.5 94.5t-22 124.5q0 64 22 117.5t59.5 92.5t88 61t108.5 22q42 0 75.5 -13t57 -28.5t36.5 -30t15 -17.5h2v70h122v-555z" />
    <glyph glyph-name="atilde" unicode="&#xe3;" horiz-adv-x="660" 
d="M134 724q39 29 70.5 36t45.5 7q22 0 40 -4.5t42 -11.5q30 -9 43 -11t22 -2q41 0 76 23l54 -78q-23 -18 -49.5 -32.5t-64.5 -14.5q-9 0 -17 1t-18 3t-24 5.5t-35 9.5q-10 3 -22 5.5t-29 2.5q-32 0 -51.5 -7.5t-28.5 -12.5zM487 279q0 43 -14 75.5t-37 54t-52 32.5t-59 11
q-41 0 -72 -16t-51.5 -41.5t-31 -57t-10.5 -62.5q0 -35 12.5 -66.5t34.5 -54.5t52 -36.5t66 -13.5q34 0 64 13t51.5 36t34 55t12.5 71zM613 0h-122v69q-16 -19 -38.5 -35t-48 -27.5t-53.5 -18t-54 -6.5q-54 0 -102.5 20.5t-86 59.5t-59.5 94.5t-22 124.5q0 64 22 117.5
t59.5 92.5t88 61t108.5 22q42 0 75.5 -13t57 -28.5t36.5 -30t15 -17.5h2v70h122v-555z" />
    <glyph glyph-name="adieresis" unicode="&#xe4;" horiz-adv-x="660" 
d="M369 769h133v-133h-133v133zM158 769h134v-133h-134v133zM487 279q0 43 -14 75.5t-37 54t-52 32.5t-59 11q-41 0 -72 -16t-51.5 -41.5t-31 -57t-10.5 -62.5q0 -35 12.5 -66.5t34.5 -54.5t52 -36.5t66 -13.5q34 0 64 13t51.5 36t34 55t12.5 71zM613 0h-122v69
q-16 -19 -38.5 -35t-48 -27.5t-53.5 -18t-54 -6.5q-54 0 -102.5 20.5t-86 59.5t-59.5 94.5t-22 124.5q0 64 22 117.5t59.5 92.5t88 61t108.5 22q42 0 75.5 -13t57 -28.5t36.5 -30t15 -17.5h2v70h122v-555z" />
    <glyph glyph-name="aring" unicode="&#xe5;" horiz-adv-x="660" 
d="M290 726q0 -17 11.5 -28.5t28.5 -11.5t29 11.5t12 28.5t-12 29t-29 12t-28.5 -12t-11.5 -29zM223 726q0 22 8.5 42t23 34.5t34 23t41.5 8.5t42 -8.5t34.5 -23t23 -34.5t8.5 -42t-8.5 -41.5t-23.5 -34t-34.5 -23t-41.5 -8.5t-41.5 8.5t-34 23t-23 34t-8.5 41.5zM487 279
q0 43 -14 75.5t-37 54t-52 32.5t-59 11q-41 0 -72 -16t-51.5 -41.5t-31 -57t-10.5 -62.5q0 -35 12.5 -66.5t34.5 -54.5t52 -36.5t66 -13.5q34 0 64 13t51.5 36t34 55t12.5 71zM613 0h-122v69q-16 -19 -38.5 -35t-48 -27.5t-53.5 -18t-54 -6.5q-54 0 -102.5 20.5t-86 59.5
t-59.5 94.5t-22 124.5q0 64 22 117.5t59.5 92.5t88 61t108.5 22q42 0 75.5 -13t57 -28.5t36.5 -30t15 -17.5h2v70h122v-555z" />
    <glyph glyph-name="ae" unicode="&#xe6;" horiz-adv-x="1080" 
d="M915 325q-2 10 -9 31t-23.5 41.5t-45 36.5t-72.5 18q-59 0 -101.5 -35t-55.5 -92h307zM162 276q0 -32 11.5 -62.5t32 -55t50 -39.5t65.5 -15q32 0 61 13.5t51 36.5t35 55t13 69q0 39 -13.5 71.5t-36 55t-51 35t-58.5 12.5q-27 0 -55.5 -11t-51.5 -33t-38 -55t-15 -77z
M1033 175q-8 -27 -30.5 -60.5t-56.5 -63t-78.5 -49.5t-96.5 -20q-59 0 -97.5 19.5t-64.5 54.5h-2v-56h-122v56h-2q-6 -8 -17.5 -20.5t-31.5 -24.5t-49.5 -20.5t-71.5 -8.5q-59 0 -110.5 24t-90 64.5t-61 94t-22.5 112.5q0 63 23.5 117.5t63 94.5t91 62.5t108.5 22.5
q38 0 65 -7t47 -17t33.5 -22.5t24.5 -22.5v50h122v-50q32 34 71.5 51.5t98.5 17.5q50 0 98.5 -23t87 -62.5t62 -92t23.5 -111.5v-18q0 -26 -4 -49h-432q7 -29 24 -50.5t38 -35.5t44 -21t43 -7q31 0 53.5 7.5t38.5 18t25.5 23t14.5 22.5h140z" />
    <glyph glyph-name="ccedilla" unicode="&#xe7;" horiz-adv-x="640" 
d="M283 -164q3 -17 16 -27t31 -10q20 0 33 13.5t13 34.5q0 20 -13.5 35t-33.5 15q-11 0 -23 -4t-20 -18l-49 19l41 94q-47 9 -90 33t-77 61.5t-54 87.5t-20 110q0 64 24.5 118t65 93t94 61t110.5 22q26 0 65 -7.5t79.5 -29.5t77 -62t57.5 -104h-150q-6 10 -15.5 24t-24.5 27
t-36.5 21.5t-52.5 8.5q-30 0 -59 -11t-51.5 -33t-36.5 -54.5t-14 -75.5q0 -36 12 -67.5t34 -55t52.5 -37.5t68.5 -14q33 0 65 17.5t58 59.5h150q-34 -94 -107 -146.5t-171 -52.5h-3l-17 -37q5 1 11 1.5t14 0.5q36 0 64.5 -25.5t28.5 -74.5q0 -48 -29.5 -73t-70.5 -25
q-26 0 -45 9.5t-31 23t-18 28.5t-6 26h53z" />
    <glyph glyph-name="egrave" unicode="&#xe8;" horiz-adv-x="640" 
d="M217 851l222 -135l-53 -92l-226 125zM474 325q-6 33 -20 57t-34 39.5t-44.5 23t-51.5 7.5q-20 0 -43.5 -5.5t-45.5 -19.5t-40.5 -38.5t-27.5 -63.5h307zM171 218q2 -14 13 -33.5t30 -37.5t46.5 -30.5t63.5 -12.5q89 0 128 71h140q-12 -38 -37 -72.5t-60 -61.5t-78.5 -43
t-92.5 -16q-63 0 -117 23t-93 63t-61 93.5t-22 114.5q0 59 21 113t59 95t92 65.5t120 24.5q68 0 121.5 -25.5t90 -66.5t56 -93t19.5 -104q0 -20 -2.5 -36.5t-5.5 -30.5h-431z" />
    <glyph glyph-name="eacute" unicode="&#xe9;" horiz-adv-x="640" 
d="M199 716l222 135l57 -102l-226 -125zM474 325q-6 33 -20 57t-34 39.5t-44.5 23t-51.5 7.5q-20 0 -43.5 -5.5t-45.5 -19.5t-40.5 -38.5t-27.5 -63.5h307zM171 218q2 -14 13 -33.5t30 -37.5t46.5 -30.5t63.5 -12.5q89 0 128 71h140q-12 -38 -37 -72.5t-60 -61.5t-78.5 -43
t-92.5 -16q-63 0 -117 23t-93 63t-61 93.5t-22 114.5q0 59 21 113t59 95t92 65.5t120 24.5q68 0 121.5 -25.5t90 -66.5t56 -93t19.5 -104q0 -20 -2.5 -36.5t-5.5 -30.5h-431z" />
    <glyph glyph-name="ecircumflex" unicode="&#xea;" horiz-adv-x="640" 
d="M269 774h105l146 -138h-145l-53 64l-56 -64h-145zM474 325q-6 33 -20 57t-34 39.5t-44.5 23t-51.5 7.5q-20 0 -43.5 -5.5t-45.5 -19.5t-40.5 -38.5t-27.5 -63.5h307zM171 218q2 -14 13 -33.5t30 -37.5t46.5 -30.5t63.5 -12.5q89 0 128 71h140q-12 -38 -37 -72.5
t-60 -61.5t-78.5 -43t-92.5 -16q-63 0 -117 23t-93 63t-61 93.5t-22 114.5q0 59 21 113t59 95t92 65.5t120 24.5q68 0 121.5 -25.5t90 -66.5t56 -93t19.5 -104q0 -20 -2.5 -36.5t-5.5 -30.5h-431z" />
    <glyph glyph-name="edieresis" unicode="&#xeb;" horiz-adv-x="640" 
d="M359 769h133v-133h-133v133zM148 769h134v-133h-134v133zM474 325q-6 33 -20 57t-34 39.5t-44.5 23t-51.5 7.5q-20 0 -43.5 -5.5t-45.5 -19.5t-40.5 -38.5t-27.5 -63.5h307zM171 218q2 -14 13 -33.5t30 -37.5t46.5 -30.5t63.5 -12.5q89 0 128 71h140q-12 -38 -37 -72.5
t-60 -61.5t-78.5 -43t-92.5 -16q-63 0 -117 23t-93 63t-61 93.5t-22 114.5q0 59 21 113t59 95t92 65.5t120 24.5q68 0 121.5 -25.5t90 -66.5t56 -93t19.5 -104q0 -20 -2.5 -36.5t-5.5 -30.5h-431z" />
    <glyph glyph-name="igrave" unicode="&#xec;" horiz-adv-x="240" 
d="M-8 851l222 -135l-53 -92l-226 125zM53 555h133v-555h-133v555z" />
    <glyph glyph-name="iacute" unicode="&#xed;" horiz-adv-x="240" 
d="M24 716l222 135l57 -102l-226 -125zM53 555h133v-555h-133v555z" />
    <glyph glyph-name="icircumflex" unicode="&#xee;" horiz-adv-x="240" 
d="M69 774h105l146 -138h-145l-53 64l-56 -64h-145zM53 555h133v-555h-133v555z" />
    <glyph glyph-name="idieresis" unicode="&#xef;" horiz-adv-x="240" 
d="M159 769h133v-133h-133v133zM-52 769h134v-133h-134v133zM53 555h133v-555h-133v555z" />
    <glyph glyph-name="eth" unicode="&#xf0;" horiz-adv-x="640" 
d="M160 572l-86 56l144 44q-48 23 -106 41l150 41q19 -5 42 -15t49 -25l131 40l86 -60l-132 -39q35 -29 67 -66.5t57 -82.5t39.5 -97.5t14.5 -113.5q0 -76 -24.5 -134.5t-65.5 -98t-94 -60t-109 -20.5q-62 0 -116 23.5t-94 64t-63 94t-23 113.5q0 63 23.5 117t64 93.5
t94 62.5t112.5 23h2q34 -2 52 -11l2 2q-14 14 -30 27t-36 26zM324 452q-26 0 -55 -11t-53 -33t-40 -55t-16 -76q0 -39 13.5 -71t36.5 -54.5t52 -35t61 -12.5q36 0 66 14.5t51 38.5t32.5 55t11.5 64q0 38 -13.5 70t-36 55.5t-51 37t-59.5 13.5z" />
    <glyph glyph-name="ntilde" unicode="&#xf1;" horiz-adv-x="600" 
d="M104 724q39 29 70.5 36t45.5 7q22 0 40 -4.5t42 -11.5q30 -9 43 -11t22 -2q41 0 76 23l54 -78q-23 -18 -49.5 -32.5t-64.5 -14.5q-9 0 -17 1t-18 3t-24 5.5t-35 9.5q-10 3 -22 5.5t-29 2.5q-32 0 -51.5 -7.5t-28.5 -12.5zM54 555h123v-48q8 8 21 19.5t31.5 22t43 18
t56.5 7.5q18 0 40 -4t44.5 -13.5t44 -24t38.5 -35.5q19 -23 29.5 -50.5t15 -54.5t5.5 -51.5t1 -40.5v-300h-133v274q0 17 -2 47t-12.5 59t-33 50.5t-64.5 21.5q-18 0 -45.5 -10.5t-45.5 -38.5q-9 -13 -14 -29.5t-7 -35t-2.5 -37.5t-0.5 -37v-264h-133v555z" />
    <glyph glyph-name="ograve" unicode="&#xf2;" horiz-adv-x="640" 
d="M217 851l222 -135l-53 -92l-226 125zM321 104q36 0 66 14.5t51 38.5t32.5 55t11.5 64q0 38 -13.5 70t-36 55.5t-51.5 37t-60 13.5q-26 0 -54.5 -11t-52.5 -33t-40 -55t-16 -76q0 -39 13.5 -71t36.5 -54.5t52 -35t61 -12.5zM321 -18q-62 0 -116 23.5t-94 64t-63 94
t-23 113.5q0 63 24 117.5t64.5 94t94 62.5t113.5 23q59 0 112 -22t93.5 -61.5t64.5 -93.5t24 -118q0 -68 -24.5 -123t-65 -93.5t-93.5 -59.5t-111 -21z" />
    <glyph glyph-name="oacute" unicode="&#xf3;" horiz-adv-x="640" 
d="M199 716l222 135l57 -102l-226 -125zM321 104q36 0 66 14.5t51 38.5t32.5 55t11.5 64q0 38 -13.5 70t-36 55.5t-51.5 37t-60 13.5q-26 0 -54.5 -11t-52.5 -33t-40 -55t-16 -76q0 -39 13.5 -71t36.5 -54.5t52 -35t61 -12.5zM321 -18q-62 0 -116 23.5t-94 64t-63 94
t-23 113.5q0 63 24 117.5t64.5 94t94 62.5t113.5 23q59 0 112 -22t93.5 -61.5t64.5 -93.5t24 -118q0 -68 -24.5 -123t-65 -93.5t-93.5 -59.5t-111 -21z" />
    <glyph glyph-name="ocircumflex" unicode="&#xf4;" horiz-adv-x="640" 
d="M269 774h105l146 -138h-145l-53 64l-56 -64h-145zM321 104q36 0 66 14.5t51 38.5t32.5 55t11.5 64q0 38 -13.5 70t-36 55.5t-51.5 37t-60 13.5q-26 0 -54.5 -11t-52.5 -33t-40 -55t-16 -76q0 -39 13.5 -71t36.5 -54.5t52 -35t61 -12.5zM321 -18q-62 0 -116 23.5t-94 64
t-63 94t-23 113.5q0 63 24 117.5t64.5 94t94 62.5t113.5 23q59 0 112 -22t93.5 -61.5t64.5 -93.5t24 -118q0 -68 -24.5 -123t-65 -93.5t-93.5 -59.5t-111 -21z" />
    <glyph glyph-name="otilde" unicode="&#xf5;" horiz-adv-x="640" 
d="M124 724q39 29 70.5 36t45.5 7q22 0 40 -4.5t42 -11.5q30 -9 43 -11t22 -2q41 0 76 23l54 -78q-23 -18 -49.5 -32.5t-64.5 -14.5q-9 0 -17 1t-18 3t-24 5.5t-35 9.5q-10 3 -22 5.5t-29 2.5q-32 0 -51.5 -7.5t-28.5 -12.5zM321 104q36 0 66 14.5t51 38.5t32.5 55t11.5 64
q0 38 -13.5 70t-36 55.5t-51.5 37t-60 13.5q-26 0 -54.5 -11t-52.5 -33t-40 -55t-16 -76q0 -39 13.5 -71t36.5 -54.5t52 -35t61 -12.5zM321 -18q-62 0 -116 23.5t-94 64t-63 94t-23 113.5q0 63 24 117.5t64.5 94t94 62.5t113.5 23q59 0 112 -22t93.5 -61.5t64.5 -93.5
t24 -118q0 -68 -24.5 -123t-65 -93.5t-93.5 -59.5t-111 -21z" />
    <glyph glyph-name="odieresis" unicode="&#xf6;" horiz-adv-x="640" 
d="M359 769h133v-133h-133v133zM148 769h134v-133h-134v133zM321 104q36 0 66 14.5t51 38.5t32.5 55t11.5 64q0 38 -13.5 70t-36 55.5t-51.5 37t-60 13.5q-26 0 -54.5 -11t-52.5 -33t-40 -55t-16 -76q0 -39 13.5 -71t36.5 -54.5t52 -35t61 -12.5zM321 -18q-62 0 -116 23.5
t-94 64t-63 94t-23 113.5q0 63 24 117.5t64.5 94t94 62.5t113.5 23q59 0 112 -22t93.5 -61.5t64.5 -93.5t24 -118q0 -68 -24.5 -123t-65 -93.5t-93.5 -59.5t-111 -21z" />
    <glyph glyph-name="divide" unicode="&#xf7;" horiz-adv-x="600" 
d="M240 100h120v-120h-120v120zM240 526h120v-120h-120v120zM48 193v120h504v-120h-504z" />
    <glyph glyph-name="oslash" unicode="&#xf8;" horiz-adv-x="660" 
d="M486 608l99 -69l-40 -58q37 -38 58.5 -89.5t21.5 -112.5q0 -68 -24.5 -123t-65 -93.5t-93.5 -59.5t-111 -21t-111 22l-38 -54l-99 68l37 54q-40 40 -62.5 92.5t-22.5 112.5q0 63 24 117.5t64.5 94t94 62.5t113.5 23t116 -24l1 1zM291 109q10 -2 19.5 -3.5t20.5 -1.5
q36 0 66 14.5t51 38.5t32.5 55t11.5 64q0 52 -25 91zM375 445q-20 7 -44 7q-26 0 -54.5 -11t-52.5 -33t-40 -55t-16 -76q0 -28 7 -52t20 -44z" />
    <glyph glyph-name="ugrave" unicode="&#xf9;" horiz-adv-x="600" 
d="M162 851l222 -135l-53 -92l-226 125zM544 555v-555h-122v56h-2q-8 -11 -19.5 -24t-28.5 -24t-40 -18.5t-55 -7.5q-38 0 -68 8.5t-52.5 21.5t-39 28.5t-26.5 29.5q-15 22 -23.5 49t-12.5 53.5t-4.5 51t-0.5 41.5v290h133v-283q0 -17 2 -45.5t12.5 -55.5t34 -47t67.5 -20
q31 0 52.5 13.5t35 37t19 53.5t5.5 63v284h133z" />
    <glyph glyph-name="uacute" unicode="&#xfa;" horiz-adv-x="600" 
d="M214 716l222 135l57 -102l-226 -125zM544 555v-555h-122v56h-2q-8 -11 -19.5 -24t-28.5 -24t-40 -18.5t-55 -7.5q-38 0 -68 8.5t-52.5 21.5t-39 28.5t-26.5 29.5q-15 22 -23.5 49t-12.5 53.5t-4.5 51t-0.5 41.5v290h133v-283q0 -17 2 -45.5t12.5 -55.5t34 -47t67.5 -20
q31 0 52.5 13.5t35 37t19 53.5t5.5 63v284h133z" />
    <glyph glyph-name="ucircumflex" unicode="&#xfb;" horiz-adv-x="600" 
d="M249 774h105l146 -138h-145l-53 64l-56 -64h-145zM544 555v-555h-122v56h-2q-8 -11 -19.5 -24t-28.5 -24t-40 -18.5t-55 -7.5q-38 0 -68 8.5t-52.5 21.5t-39 28.5t-26.5 29.5q-15 22 -23.5 49t-12.5 53.5t-4.5 51t-0.5 41.5v290h133v-283q0 -17 2 -45.5t12.5 -55.5
t34 -47t67.5 -20q31 0 52.5 13.5t35 37t19 53.5t5.5 63v284h133z" />
    <glyph glyph-name="udieresis" unicode="&#xfc;" horiz-adv-x="600" 
d="M339 769h133v-133h-133v133zM128 769h134v-133h-134v133zM544 555v-555h-122v56h-2q-8 -11 -19.5 -24t-28.5 -24t-40 -18.5t-55 -7.5q-38 0 -68 8.5t-52.5 21.5t-39 28.5t-26.5 29.5q-15 22 -23.5 49t-12.5 53.5t-4.5 51t-0.5 41.5v290h133v-283q0 -17 2 -45.5
t12.5 -55.5t34 -47t67.5 -20q31 0 52.5 13.5t35 37t19 53.5t5.5 63v284h133z" />
    <glyph glyph-name="yacute" unicode="&#xfd;" horiz-adv-x="580" 
d="M204 716l222 135l57 -102l-226 -125zM211 52l-203 503h152l126 -356l134 356h151l-319 -740h-143z" />
    <glyph glyph-name="thorn" unicode="&#xfe;" horiz-adv-x="660" 
d="M172 278q0 -46 16.5 -79t41 -54t52.5 -31t52 -10q27 0 55.5 11t52 33t39 54.5t15.5 75.5q0 38 -13.5 70t-36 55t-51 36t-59.5 13t-60.5 -12t-52.5 -34.5t-37 -55t-14 -72.5zM47 740h133v-246h2q22 28 46.5 44t47.5 24t42.5 10t32.5 2q68 0 120 -26.5t87 -69t53 -95
t18 -103.5q0 -62 -21.5 -116t-59 -94.5t-88 -64t-109.5 -23.5q-33 0 -59 6.5t-46.5 16.5t-36.5 23t-29 25v-238h-133v925z" />
    <glyph glyph-name="ydieresis" unicode="&#xff;" horiz-adv-x="580" 
d="M329 769h133v-133h-133v133zM118 769h134v-133h-134v133zM211 52l-203 503h152l126 -356l134 356h151l-319 -740h-143z" />
    <glyph glyph-name="dotlessi" unicode="&#x131;" horiz-adv-x="240" 
d="M53 555h133v-555h-133v555z" />
    <glyph glyph-name="Lslash" unicode="&#x141;" horiz-adv-x="480" 
d="M26 225v138l71 48v329h137v-237l128 86v-138l-128 -86v-237h226v-128h-363v273z" />
    <glyph glyph-name="lslash" unicode="&#x142;" horiz-adv-x="320" 
d="M99 401v339h133v-252l73 48v-143l-73 -49v-344h-133v258l-65 -42v142z" />
    <glyph glyph-name="OE" unicode="&#x152;" horiz-adv-x="1060" 
d="M174 356q0 -39 16 -82t46.5 -78.5t75.5 -59t104 -23.5q54 0 98 21.5t75.5 57t48.5 80.5t17 93q0 46 -16.5 93t-47.5 84.5t-76 61t-102 23.5q-48 0 -91 -19t-76 -54t-52.5 -85t-19.5 -113zM650 0v79q-21 -24 -50.5 -41.5t-62 -29t-66 -17.5t-63.5 -6q-66 0 -132.5 26
t-119.5 75.5t-86 121t-33 161.5q0 92 33 163.5t86 121t119 75.5t133 26q22 0 53 -4.5t65 -15t66.5 -29t57.5 -46.5v80h357v-128h-220v-181h208v-128h-208v-175h220v-128h-357z" />
    <glyph glyph-name="oe" unicode="&#x153;" horiz-adv-x="1080" 
d="M915 325q-14 57 -54.5 92t-98.5 35q-59 0 -98 -33.5t-56 -93.5h307zM163 282q0 -42 14.5 -75.5t37.5 -56t52 -34.5t58 -12q33 0 62.5 13.5t51 36.5t34.5 55t13 68q0 37 -13 69t-35.5 55.5t-51.5 37t-62 13.5q-32 0 -61.5 -13.5t-51.5 -36.5t-35 -54t-13 -66zM1031 175
q-16 -49 -46.5 -85.5t-67.5 -60.5t-77.5 -35.5t-77.5 -11.5q-14 0 -40 3t-57 15t-63.5 35t-58.5 63q-9 -13 -25 -32.5t-42 -38t-64.5 -32t-91.5 -13.5q-60 0 -113 23t-92 63t-62 93.5t-23 115.5q0 67 25 121.5t66 93.5t93.5 60.5t107.5 21.5q50 0 88 -13.5t64.5 -32
t43.5 -38t25 -30.5q13 17 31.5 37t44.5 37t61 28.5t81 11.5q57 0 109.5 -21.5t92.5 -60t63.5 -91t23.5 -113.5q0 -37 -6 -70h-434q11 -38 33 -60.5t45.5 -34.5t44 -15.5t29.5 -3.5q54 0 86.5 22.5t44.5 48.5h138z" />
    <glyph glyph-name="Scaron" unicode="&#x160;" horiz-adv-x="520" 
d="M206 944l56 -64l53 64h145l-146 -138h-105l-148 138h145zM156 212q3 -28 12.5 -47t23.5 -30.5t30 -16.5t32 -5q20 0 38.5 6.5t32.5 19t22.5 29.5t8.5 38q0 28 -9 46.5t-27 31.5t-44.5 23.5t-60.5 23.5q-21 8 -51.5 20.5t-58 35.5t-47 60.5t-19.5 96.5q0 44 16.5 82.5
t45.5 67t68.5 45t86.5 16.5q32 0 69.5 -11.5t69.5 -37t54.5 -65.5t25.5 -97h-140q-2 25 -10 41t-19.5 25.5t-25.5 13t-28 3.5q-32 0 -54 -21t-22 -54q0 -24 8.5 -39.5t24.5 -26.5t39 -19.5t51 -17.5q23 -8 56 -21.5t64 -39.5t52.5 -66.5t21.5 -100.5t-21 -104.5t-55.5 -73.5
t-77.5 -43.5t-86 -14.5q-36 0 -77 12.5t-76.5 40t-60 70.5t-27.5 104h144z" />
    <glyph glyph-name="scaron" unicode="&#x161;" horiz-adv-x="440" 
d="M166 774l56 -64l53 64h145l-146 -138h-105l-148 138h145zM276 404q-3 16 -10 26t-14.5 14.5t-15.5 6t-13 1.5q-25 0 -38 -15.5t-13 -32.5q0 -12 4.5 -20t15.5 -14.5t29 -12.5l45 -15q26 -8 53.5 -19t50 -30t37 -47t14.5 -70q0 -47 -17 -83t-44.5 -61t-62 -37.5
t-70.5 -12.5q-21 0 -43.5 4t-44 12.5t-42 22.5t-36.5 34q-26 32 -33 63t-9 57h136q2 -9 6 -21.5t12 -23.5t21 -18.5t34 -7.5q16 0 27.5 5.5t18.5 14t10.5 18t3.5 18.5q0 15 -6 25.5t-20.5 19.5t-38.5 17.5t-60 20.5q-24 8 -46 21t-39.5 32.5t-28 45.5t-10.5 60q0 40 16.5 72
t43 54.5t60 34t66.5 11.5q31 0 62.5 -11t57 -32.5t42.5 -53.5t19 -73h-130z" />
    <glyph glyph-name="Ydieresis" unicode="&#x178;" horiz-adv-x="620" 
d="M349 939h133v-133h-133v133zM138 939h134v-133h-134v133zM241 273l-243 467h150l161 -340l162 340h151l-244 -467v-273h-137v273z" />
    <glyph glyph-name="Zcaron" unicode="&#x17d;" horiz-adv-x="500" 
d="M221 944l56 -64l53 64h145l-146 -138h-105l-148 138h145zM302 612h-268v128h428v-119l-281 -493h300v-128h-462v112z" />
    <glyph glyph-name="zcaron" unicode="&#x17e;" horiz-adv-x="460" 
d="M181 774l56 -64l53 64h145l-146 -138h-105l-148 138h145zM20 122l246 311h-218v122h377v-122l-246 -311h263v-122h-422v122z" />
    <glyph glyph-name="florin" unicode="&#x192;" 
d="M474 586l-19 -115h-93l-62 -365q-7 -40 -14 -71.5t-17.5 -57t-26 -46t-40.5 -38.5q-32 -23 -69.5 -33.5t-78.5 -10.5q-22 0 -33 2t-21 5l20 114h16q42 0 66.5 11.5t39 32t21.5 49.5t13 65l60 343h-94l19 115h95l4 26q4 20 8.5 40t13 40t21.5 39.5t33 37.5q29 26 65 40.5
t79 14.5q16 0 20.5 -0.5t11.5 -2.5l-20 -117h-7q-30 0 -48 -11t-29 -28.5t-16.5 -38.5t-9.5 -40h92z" />
    <glyph glyph-name="circumflex" unicode="&#x2c6;" horiz-adv-x="540" 
d="M219 774h105l146 -138h-145l-53 64l-56 -64h-145z" />
    <glyph glyph-name="caron" unicode="&#x2c7;" horiz-adv-x="540" 
d="M216 774l56 -64l53 64h145l-146 -138h-105l-148 138h145z" />
    <glyph glyph-name="breve" unicode="&#x2d8;" horiz-adv-x="480" 
d="M150 770q17 -26 43.5 -33t46.5 -7q28 0 52.5 8.5t38.5 31.5h108q-10 -65 -61 -101t-138 -36q-86 0 -137 36t-61 101h108z" />
    <glyph glyph-name="dotaccent" unicode="&#x2d9;" horiz-adv-x="280" 
d="M74 769h133v-133h-133v133z" />
    <glyph glyph-name="ring" unicode="&#x2da;" horiz-adv-x="360" 
d="M140 726q0 -17 11.5 -28.5t28.5 -11.5t29 11.5t12 28.5t-12 29t-29 12t-28.5 -12t-11.5 -29zM73 726q0 22 8.5 42t23 34.5t34 23t41.5 8.5t42 -8.5t34.5 -23t23 -34.5t8.5 -42t-8.5 -41.5t-23.5 -34t-34.5 -23t-41.5 -8.5t-41.5 8.5t-34 23t-23 34t-8.5 41.5z" />
    <glyph glyph-name="ogonek" unicode="&#x2db;" horiz-adv-x="340" 
d="M235 9q-30 -23 -47 -39t-17 -40q0 -23 16 -34t35 -11q11 0 19.5 3t20.5 8v-78q-12 -5 -27 -9t-41 -4q-35 0 -57.5 10.5t-35 25.5t-17.5 31.5t-5 29.5q0 29 20 56.5t66 50.5h70z" />
    <glyph glyph-name="tilde" unicode="&#x2dc;" horiz-adv-x="480" 
d="M44 724q39 29 70.5 36t45.5 7q22 0 40 -4.5t42 -11.5q30 -9 43 -11t22 -2q41 0 76 23l54 -78q-23 -18 -49.5 -32.5t-64.5 -14.5q-9 0 -17 1t-18 3t-24 5.5t-35 9.5q-10 3 -22 5.5t-29 2.5q-32 0 -51.5 -7.5t-28.5 -12.5z" />
    <glyph glyph-name="hungarumlaut" unicode="&#x2dd;" horiz-adv-x="700" 
d="M362 686l197 163l67 -89l-207 -150zM120 686l197 163l67 -89l-207 -150z" />
    <glyph glyph-name="endash" unicode="&#x2013;" horiz-adv-x="500" 
d="M35 348h430v-118h-430v118z" />
    <glyph glyph-name="emdash" unicode="&#x2014;" horiz-adv-x="1000" 
d="M35 348h930v-118h-930v118z" />
    <glyph glyph-name="quoteleft" unicode="&#x2018;" horiz-adv-x="280" 
d="M205 466h-133v141q0 40 13.5 65.5t33 40.5t42 21t40.5 6h3v-68q-9 -2 -19 -4.5t-18.5 -8.5t-14.5 -16t-6 -27q0 -13 1 -17h58v-133z" />
    <glyph glyph-name="quoteright" unicode="&#x2019;" horiz-adv-x="280" 
d="M72 740h133v-141q0 -40 -13.5 -65.5t-33 -40.5t-42 -21t-40.5 -6h-3v67q9 2 19 4.5t19 8.5t14.5 16.5t5.5 27.5v17h-59v133z" />
    <glyph glyph-name="quotesinglbase" unicode="&#x201a;" horiz-adv-x="280" 
d="M72 133h133v-140q0 -41 -13.5 -67t-34 -41t-43.5 -20.5t-41 -5.5v68q9 1 19 4t19 9t14.5 16t5.5 27v17h-59v133z" />
    <glyph glyph-name="quotedblleft" unicode="&#x201c;" horiz-adv-x="480" 
d="M410 466h-133v141q0 40 13.5 65.5t33 40.5t42 21t40.5 6h3v-68q-9 -2 -19 -4.5t-18.5 -8.5t-14.5 -16t-6 -27q0 -5 0.5 -9.5t0.5 -7.5h58v-133zM203 466h-133v141q0 40 13.5 65.5t33 40.5t42 21t40.5 6h3v-68q-9 -2 -19 -4.5t-18.5 -8.5t-14.5 -16t-6 -27q0 -5 0.5 -9.5
t0.5 -7.5h58v-133z" />
    <glyph glyph-name="quotedblright" unicode="&#x201d;" horiz-adv-x="480" 
d="M277 740h133v-141q0 -40 -13 -65.5t-32.5 -40.5t-42 -21t-41.5 -6h-3v67q9 2 19 4.5t19 8.5t14.5 16.5t5.5 27.5v17h-59v133zM70 740h133v-141q0 -40 -13 -65.5t-32.5 -40.5t-42 -21t-41.5 -6h-3v67q9 2 19 4.5t19 8.5t14.5 16.5t5.5 27.5v17h-59v133z" />
    <glyph glyph-name="quotedblbase" unicode="&#x201e;" horiz-adv-x="480" 
d="M277 133h133v-140q0 -41 -13.5 -67t-33.5 -41t-43 -20.5t-42 -5.5v68q9 1 19 4t19 9t14.5 16t5.5 27v17h-59v133zM70 133h133v-140q0 -41 -13.5 -67t-33.5 -41t-43 -20.5t-42 -5.5v68q9 1 19 4t19 9t14.5 16t5.5 27v17h-59v133z" />
    <glyph glyph-name="dagger" unicode="&#x2020;" 
d="M347 555h162v-113h-162v-584h-133v584h-163v113h163v185h133v-185z" />
    <glyph glyph-name="daggerdbl" unicode="&#x2021;" 
d="M346 587h163v-112h-163v-296h163v-112h-163v-209h-133v209h-162v112h162v296h-162v112h162v153h133v-153z" />
    <glyph glyph-name="bullet" unicode="&#x2022;" horiz-adv-x="600" 
d="M302 532q31 0 58.5 -12.5t48 -33.5t32.5 -49t12 -60t-12 -60.5t-33 -49.5t-48.5 -33t-58.5 -12q-32 0 -60 12.5t-48.5 33.5t-32.5 49t-12 60q0 31 11.5 59t32 49.5t49 34t61.5 12.5z" />
    <glyph glyph-name="ellipsis" unicode="&#x2026;" horiz-adv-x="1000" 
d="M766 133h133v-133h-133v133zM433 133h133v-133h-133v133zM100 133h133v-133h-133v133z" />
    <glyph glyph-name="perthousand" unicode="&#x2030;" horiz-adv-x="1280" 
d="M530 740h102l-307 -740h-101zM972 166q0 -29 20.5 -49.5t49.5 -20.5q28 0 48.5 20.5t20.5 49.5q0 30 -20.5 50t-48.5 20q-30 0 -50 -20.5t-20 -49.5zM861 166q0 37 14 70t39 58t57.5 39t70.5 14q37 0 70 -14t57.5 -39t38.5 -58t14 -70q0 -38 -14.5 -71t-39 -57.5
t-57.5 -38.5t-69 -14q-37 0 -70 14t-57.5 38.5t-39 57.5t-14.5 71zM572 166q0 -29 20.5 -49.5t49.5 -20.5q28 0 48.5 20.5t20.5 49.5q0 30 -20.5 50t-48.5 20q-30 0 -50 -20.5t-20 -49.5zM461 166q0 37 14 70t39 58t57.5 39t70.5 14q37 0 70 -14t57.5 -39t38.5 -58t14 -70
q0 -38 -14.5 -71t-39 -57.5t-57.5 -38.5t-69 -14q-37 0 -70 14t-57.5 38.5t-39 57.5t-14.5 71zM147 574q0 -28 20 -48.5t49 -20.5q27 0 48 20t21 50q0 29 -20 49t-49 20t-49 -20t-20 -50zM36 574q0 37 14 70t38.5 58t57.5 39t70 14t70 -14t57.5 -39t38.5 -58t14 -70
q0 -38 -14 -70.5t-38.5 -57t-57.5 -38.5t-70 -14t-69.5 14t-57 38.5t-39 57t-14.5 70.5z" />
    <glyph glyph-name="guilsinglleft" unicode="&#x2039;" horiz-adv-x="240" 
d="M50 239v101l140 129v-123l-68 -57l68 -58v-123z" />
    <glyph glyph-name="guilsinglright" unicode="&#x203a;" horiz-adv-x="240" 
d="M50 231l68 58l-68 57v123l140 -129v-101l-140 -131v123z" />
    <glyph glyph-name="fraction" unicode="&#x2044;" horiz-adv-x="160" 
d="M183 740h99l-307 -740h-98z" />
    <glyph glyph-name="fraction" unicode="&#x2215;" horiz-adv-x="160" 
d="M183 740h99l-307 -740h-98z" />
    <glyph glyph-name="Euro" unicode="&#x20ac;" 
d="M518 530q-19 44 -59.5 71.5t-112.5 27.5q-32 0 -54.5 -13t-37 -34.5t-21.5 -48t-7 -53.5h273l-34 -95h-239v-55h219l-35 -95h-181q4 -22 12 -44t22 -40t34.5 -29t48.5 -11q49 0 94 19t65 53v-146q-5 -6 -18.5 -14.5t-33.5 -17t-47 -14.5t-60 -6q-59 0 -104 20t-76.5 54
t-49 79.5t-21.5 96.5h-91l34 95h55v55h-89l34 95h56q0 56 19 108.5t49 87.5q32 37 78 58t106 21q43 0 79.5 -11t64 -27t45.5 -34t26 -32z" />
    <glyph glyph-name="trademark" unicode="&#x2122;" horiz-adv-x="1000" 
d="M333 740h126l119 -322l118 322h125v-444h-94v306h-2l-109 -306h-78l-109 306h-2v-306h-94v444zM94 657h-85v83h265v-83h-86v-361h-94v361z" />
    <glyph glyph-name="minus" unicode="&#x2212;" horiz-adv-x="600" 
d="M48 193v120h504v-120h-504z" />
    <glyph glyph-name="fi" unicode="&#xfb01;" horiz-adv-x="520" 
d="M328 740h133v-122h-133v122zM25 437v118h47q1 14 3.5 33t9 40t19 42t33.5 40q23 22 54 33.5t62 11.5h37v-131q-19 0 -34 -1.5t-26 -8t-17.5 -20.5t-7.5 -39h256v-555h-133v437h-123v-437h-133v437h-47z" />
    <glyph glyph-name="fl" unicode="&#xfb02;" horiz-adv-x="520" 
d="M25 437v118h47q1 14 3.5 33t9 40t19 42t33.5 40q23 22 54 33.5t62 11.5h37v-131q-19 0 -34 -1.5t-26 -8t-17.5 -20.5t-7.5 -39h123v185h133v-740h-133v437h-123v-437h-133v437h-47z" />
    <glyph glyph-name="nonbreakingspace" horiz-adv-x="280" 
 />
    </font>
</defs>
</svg>
