<?xml version="1.0" standalone="no"?>
<!DOCTYPE svg PUBLIC "-//W3C//DTD SVG 1.1//EN" "http://www.w3.org/Graphics/SVG/1.1/DTD/svg11.dtd" >
<svg xmlns="http://www.w3.org/2000/svg">
<metadata></metadata>
<defs>
<font id="dtl_nobelt_light" horiz-adv-x="1433" >
<font-face units-per-em="2048" ascent="1638" descent="-410" />
<missing-glyph horiz-adv-x="409" />
<glyph horiz-adv-x="2048" />
<glyph horiz-adv-x="2048" />
<glyph unicode="&#xd;" horiz-adv-x="2048" />
<glyph unicode=" "  horiz-adv-x="409" />
<glyph unicode="&#x09;" horiz-adv-x="409" />
<glyph unicode="&#xa0;" horiz-adv-x="409" />
<glyph unicode="!" horiz-adv-x="573" d="M213 0v168h127v-168h-127zM223 977v633h127v-631l-37 -573h-57z" />
<glyph unicode="&#x22;" horiz-adv-x="886" d="M145 1612h166l-39 -506h-88zM575 1612h166l-39 -506h-88z" />
<glyph unicode="#" horiz-adv-x="1533" d="M29 449v110h340l161 438h-358v119h406l180 494h141l-186 -500h370l187 500h141l-186 -500h309v-113h-350l-162 -438h369v-110h-410l-166 -447l-139 -2l164 449h-371l-166 -447l-139 -2l164 449h-299zM510 559h371l161 438h-370z" />
<glyph unicode="$" horiz-adv-x="1118" d="M78 193l88 67q34 -36 47.5 -49.5t49 -42.5t63.5 -41.5t72.5 -24.5t95.5 -14v676l-132 78q-128 71 -196 167t-68 240q0 168 111 273.5t285 113.5v113h71v-113q230 -8 334 -182l-88 -55q-61 78 -118 106t-128 31v-659l137 -84q109 -59 179.5 -155.5t70.5 -234.5 q0 -107 -39.5 -195t-129 -149.5t-218.5 -72.5v-160h-71v158q-125 0 -227 45t-189 164zM223 1264q0 -58 15.5 -108t34.5 -80.5t52 -59.5t50.5 -40t47.5 -27q6 -3 9 -5l62 -39v631q-48 -4 -94 -21.5t-86.5 -49t-65.5 -84t-25 -117.5zM565 90q106 11 183 88.5t77 202.5 q0 97 -49.5 176.5t-122.5 120.5l-88 57v-645z" />
<glyph unicode="%" horiz-adv-x="2048" d="M145 1290q0 151 106 257t257 106t258.5 -106.5t107.5 -256.5t-107.5 -256t-258.5 -106t-257 105.5t-106 256.5zM254 1290q0 -106 75 -181t181 -75t181 75t75 181t-75 181t-181 75t-181 -75t-75 -181zM664 0l573 1608h115l-576 -1608h-112zM1155 332q0 149 115 255.5 t268 106.5q149 0 247.5 -105t98.5 -257q0 -150 -107.5 -256.5t-258.5 -106.5t-257 106t-106 257zM1264 332q0 -106 75 -181t181 -75t181 75t75 181t-75 181t-181 75t-181 -75t-75 -181z" />
<glyph unicode="&#x26;" horiz-adv-x="1421" d="M182 375q0 61 18.5 117.5t52 105t67 85t77.5 75.5l111 96l-123 125q-59 60 -92 144t-33 157q0 148 111.5 249t267.5 101q78 0 145 -30t110.5 -78t68 -107.5t24.5 -120.5q0 -99 -49.5 -178t-153.5 -172l-120 -106l432 -482q81 115 110 156l90 -72q-28 -43 -125 -168 l250 -272h-139l-178 197q-54 -54 -91.5 -87t-92.5 -69t-117 -53t-135 -17q-123 0 -219 34.5t-153 92.5t-85.5 128.5t-28.5 148.5zM307 385q0 -71 31 -130.5t82 -98.5t115.5 -60.5t132.5 -21.5q85 0 185.5 62.5t170.5 142.5l-440 491l-105 -96q-71 -60 -121.5 -136.5 t-50.5 -152.5zM379 1284q0 -78 23.5 -131t99.5 -129l94 -94l98 88q85 75 128.5 139t43.5 135q0 106 -66.5 173t-174.5 67q-96 0 -171 -72.5t-75 -175.5z" />
<glyph unicode="'" horiz-adv-x="456" d="M145 1612h166l-39 -506h-88z" />
<glyph unicode="(" horiz-adv-x="716" d="M193 657q0 177 32 327.5t95 273t141.5 220.5t185.5 193v-119q-68 -74 -120 -154t-99.5 -188.5t-73.5 -248.5t-26 -302q0 -177 24 -320t78 -260t88.5 -174t106.5 -157q17 -25 26 -37v-119q-458 413 -458 1065z" />
<glyph unicode=")" horiz-adv-x="716" d="M66 -307q43 58 67 91.5t63.5 96t62 112t51 126.5t43.5 153t25.5 176t10.5 211q0 162 -26 302t-73.5 248.5t-99.5 188.5t-120 154v119q107 -95 185.5 -193t141.5 -220.5t95 -273t32 -327.5q0 -326 -117 -585t-341 -480v101z" />
<glyph unicode="*" horiz-adv-x="854" d="M78 1257l35 97l293 -127l-21 321h104l-18 -323l287 106l30 -100l-296 -78l210 -283l-88 -57l-178 305l-190 -289l-88 64l227 260z" />
<glyph unicode="+" horiz-adv-x="1124" d="M84 553v102h420v500h119v-500h419v-102h-419v-551h-119v551h-420z" />
<glyph unicode="," horiz-adv-x="505" d="M145 -274q28 86 40 145t12 133v164h127v-88q0 -76 -5.5 -129t-21 -94t-29.5 -65t-43 -66h-80z" />
<glyph unicode="-" horiz-adv-x="645" d="M100 459v110h445v-110h-445z" />
<glyph unicode="." horiz-adv-x="466" d="M170 0v168h127v-168h-127z" />
<glyph unicode="/" horiz-adv-x="995" d="M154 0l573 1608h115l-576 -1608h-112z" />
<glyph unicode="0" d="M154 813q0 399 152 605t411 206q290 0 426.5 -202t136.5 -609q0 -405 -147 -619t-416 -214q-189 0 -316.5 103.5t-187 287.5t-59.5 442zM272 813q0 -132 19 -241.5t49 -183.5t71.5 -131.5t82.5 -89.5t85.5 -53t77 -27.5t60.5 -6.5q34 0 69 6.5t80 27t84.5 53t79 90 t68 131.5t46 183.5t17.5 241.5q0 130 -16.5 236.5t-42.5 178.5t-64 127t-76.5 86t-84.5 50t-82.5 25t-75.5 6q-33 0 -67 -6t-79.5 -25t-85.5 -50t-80.5 -86t-69.5 -127t-47 -179t-18 -236z" />
<glyph unicode="1" d="M352 1221v114q50 0 94 9t76 22t62.5 37t50 44t41.5 52.5t34 54t31 56.5h84v-1610h-123v1360q-45 -59 -137 -99t-213 -40z" />
<glyph unicode="2" d="M231 1184q0 194 123 316t344 122q104 0 188 -22t153 -70.5t107 -135t38 -206.5q0 -73 -26.5 -155.5t-70.5 -157.5t-80.5 -127t-74.5 -99l-438 -534h770v-115h-996l504 629q1 1 21.5 25.5t37.5 45.5t45.5 59.5t51 74t47.5 82.5t42 90.5t28.5 93t11.5 94.5q0 72 -19.5 129 t-52 94t-78.5 61t-96.5 34t-108.5 10q-162 0 -261 -86.5t-99 -251.5h-111z" />
<glyph unicode="3" d="M217 158l76 73q85 -88 166 -119.5t194 -31.5q80 0 149.5 20t125.5 60.5t88.5 108t32.5 155.5q0 45 -10.5 89t-38 92t-69.5 84t-112.5 59.5t-159.5 23.5h-120v111h123q152 0 241.5 104t89.5 246q0 78 -25.5 135.5t-60 86.5t-84 46.5t-83.5 21t-72 3.5q-105 0 -200.5 -50 t-148.5 -137l-73 64q62 103 178 166t246 63q117 0 205 -32.5t139 -89t75.5 -125.5t24.5 -150q0 -144 -86 -265.5t-199 -133.5q138 -8 239 -121.5t101 -288.5q0 -206 -143 -325t-373 -119q-129 0 -237 39.5t-199 136.5z" />
<glyph unicode="4" d="M168 426v113l772 1071h64v-1071h237v-117h-237v-422h-115v426h-721zM285 539h604v837z" />
<glyph unicode="5" d="M236 178l90 74q32 -35 64 -61.5t78 -53t105 -41t127 -14.5q95 0 169.5 30t119.5 76.5t75 108t41 117.5t11 112q0 182 -104.5 296t-263.5 114q-217 0 -363 -176l-66 37l27 815h795v-105h-699l-18 -581q71 61 175.5 87.5t156.5 26.5q92 0 175.5 -30.5t152 -90.5t109 -161 t40.5 -230q0 -80 -17 -154.5t-57.5 -147t-102 -126t-157 -86t-215.5 -32.5q-132 0 -257 57.5t-191 138.5z" />
<glyph unicode="6" d="M227 586q0 574 445 1028h145q-153 -124 -284.5 -346.5t-159.5 -401.5q137 176 370 176q143 0 255.5 -68t171.5 -180.5t59 -246.5q0 -269 -138.5 -417t-367.5 -148q-231 0 -363.5 165.5t-132.5 438.5zM348 537q0 -121 46.5 -225t134.5 -169t198 -65q123 0 209.5 61.5 t128 165t41.5 238.5q0 97 -35.5 175.5t-91.5 126t-120 72.5t-126 25q-34 0 -71.5 -7t-82.5 -23.5t-85 -47.5t-73.5 -73.5t-53 -108t-19.5 -145.5z" />
<glyph unicode="7" d="M240 1495v115h1028l-756 -1610h-133l723 1495h-862z" />
<glyph unicode="8" d="M221 455q0 146 79 259.5t187 145.5q-1 0 -25.5 13t-30.5 16.5t-30.5 18.5t-33.5 24.5t-30 29.5t-30.5 37.5t-24 45t-21 55.5t-12 64.5t-5.5 76.5q0 72 33.5 141t94 125t156 90.5t209.5 34.5q106 0 190.5 -24t137 -62.5t87.5 -91t48.5 -105t13.5 -108.5 q0 -69 -16.5 -127.5t-39 -96t-59.5 -71t-64.5 -50.5t-67.5 -38q118 -33 198 -134t80 -269q0 -207 -144.5 -340t-367.5 -133q-221 0 -366.5 134.5t-145.5 338.5zM342 455q0 -73 29 -141t79.5 -120t124.5 -83t158 -31q92 0 168.5 33.5t124 87.5t73 120t25.5 134q0 40 -9 82.5 t-35.5 93.5t-67.5 90t-113.5 65.5t-165.5 26.5q-86 0 -155 -22t-112 -57.5t-72 -83.5t-40.5 -96t-11.5 -99zM365 1241q0 -89 27.5 -152.5t79 -99.5t117 -52.5t150.5 -16.5q165 0 261 80.5t96 240.5q0 134 -101.5 212.5t-255.5 78.5q-155 0 -264.5 -78.5t-109.5 -212.5z" />
<glyph unicode="9" d="M213 1087q0 109 29 199.5t78 152t115.5 104t141 62t154.5 19.5q119 0 212 -45.5t151 -127.5t88 -191t30 -240q0 -100 -20 -199.5t-50 -181t-79 -168t-91.5 -149t-103.5 -135t-100.5 -115t-95.5 -99.5l-80 68q174 160 309 367t174 346q-151 -191 -383 -191 q-205 0 -342 150.5t-137 373.5zM334 1092q0 -110 35 -195t91 -133t118.5 -72t126.5 -24q25 0 54.5 5t68 18t75 33t72 53.5t62 75.5t43 103.5t16.5 133.5q0 86 -24 163.5t-69 139t-117 97.5t-161 36q-184 0 -287.5 -114t-103.5 -320z" />
<glyph unicode=":" horiz-adv-x="512" d="M193 0v168h126v-168h-126zM193 791v167h126v-167h-126z" />
<glyph unicode=";" horiz-adv-x="512" d="M141 -274q28 86 40 145t12 133v164h126v-88q0 -100 -13 -166.5t-30 -100t-55 -87.5h-80zM193 791v167h126v-167h-126z" />
<glyph unicode="&#x3c;" horiz-adv-x="1124" d="M172 559v119l754 520v-160l-654 -420l656 -425v-160z" />
<glyph unicode="=" horiz-adv-x="1124" d="M127 246v121h870v-121h-870zM127 682v121h870v-121h-870z" />
<glyph unicode="&#x3e;" horiz-adv-x="1124" d="M197 1036v160l755 -526v-119l-753 -520v159l653 420z" />
<glyph unicode="?" horiz-adv-x="907" d="M61 1358q20 104 119 179t254 75q44 0 88.5 -7.5t95.5 -29.5t89.5 -56t64 -93t25.5 -134q0 -168 -166 -397q-36 -48 -62.5 -92.5t-52 -105t-38.5 -134.5t-13 -160h-125q0 113 19 198t59 177q20 46 65 113.5t82.5 120t67 127.5t29.5 147q0 60 -21 104t-58 67t-78.5 33.5 t-90.5 10.5q-29 0 -59.5 -7t-67 -24t-67 -54.5t-46.5 -90.5zM340 0v168h127v-168h-127z" />
<glyph unicode="@" horiz-adv-x="1978" d="M131 739q0 181 68 346t183 284.5t274 190t333 70.5q258 0 451 -99.5t300 -292t107 -456.5q0 -79 -16.5 -150.5t-47.5 -132.5t-58.5 -102t-67.5 -92h-397v92q-82 -65 -167 -89.5t-188 -24.5q-52 0 -97 8t-89.5 28t-75.5 52t-50.5 84.5t-19.5 119.5q0 59 23 112.5t71 101 t135 76t202 28.5q42 0 128.5 -5.5t127.5 -13.5v99q0 123 -76 170t-226 47q-152 0 -268 -74l-47 96q159 78 361 78q86 0 151 -14t114.5 -45t75 -86t25.5 -133v-592h221q140 196 140 362q0 219 -86.5 384t-255.5 258.5t-400 93.5q-152 0 -290 -62.5t-237.5 -167t-158.5 -248.5 t-59 -301q0 -158 59 -302t158.5 -248t237.5 -166t290 -62h152v-113h-152q-174 0 -333 70.5t-274 190t-183 284.5t-68 346zM674 567q0 -91 66 -141.5t186 -50.5q79 0 169 35t152 86v288q-117 19 -280 19q-135 0 -214 -57.5t-79 -178.5z" />
<glyph unicode="A" horiz-adv-x="1378" d="M92 0l592 1683l602 -1683h-125l-184 543h-576l-184 -543h-125zM436 645h496l-256 715z" />
<glyph unicode="B" horiz-adv-x="1396" d="M260 0v1610h371q229 0 356 -114.5t127 -289.5q0 -147 -65 -248.5t-170 -150.5q63 -5 121 -34.5t103.5 -79.5t73 -125.5t27.5 -166.5q0 -79 -30 -149.5t-88.5 -127.5t-155 -90.5t-219.5 -33.5h-451zM383 106h301q192 0 292.5 82t100.5 209q0 53 -10.5 99t-39.5 91.5 t-75 77t-121.5 51t-173.5 19.5h-274v-629zM383 842h248q180 0 270 98.5t90 261.5q0 26 -3 49.5t-13 55t-27 57.5t-47.5 53t-72 45t-103 29.5t-137.5 11.5h-205v-661z" />
<glyph unicode="C" horiz-adv-x="1591" d="M131 807q0 162 61 311.5t166 260.5t255 177t319 66q145 0 282 -40.5t234 -125.5l-82 -92q-102 73 -202.5 111t-229.5 38q-176 0 -330.5 -95t-247 -258.5t-92.5 -352.5q0 -201 88 -366t244.5 -260t349.5 -95q276 0 500 205l78 -86q-58 -66 -135 -113.5t-156.5 -72 t-150.5 -35.5t-138 -11q-172 0 -320.5 57.5t-258 162.5t-172 263.5t-62.5 350.5z" />
<glyph unicode="D" horiz-adv-x="1638" d="M260 0v1610h387q147 0 274.5 -31t236 -97t185.5 -163t120.5 -236.5t43.5 -310.5q0 -174 -67 -320.5t-180.5 -244.5t-265 -152.5t-320.5 -54.5h-414zM383 106h252q161 0 300 50.5t237 138.5t154 211.5t56 265.5q0 78 -9.5 148.5t-33.5 145.5t-61.5 137.5t-98.5 119 t-140 95.5t-189.5 62t-243.5 23h-223v-1397z" />
<glyph unicode="E" horiz-adv-x="1181" d="M260 0v1610h807v-107h-684v-622h657v-107h-657v-668h737v-106h-860z" />
<glyph unicode="F" horiz-adv-x="1067" d="M260 0v1610h807v-107h-684v-624h657v-107h-657v-772h-123z" />
<glyph unicode="G" horiz-adv-x="1888" d="M131 807q0 163 62.5 313t169 260.5t256.5 176t317 65.5q195 0 330.5 -44t238.5 -140l-84 -92q-106 91 -217.5 129t-267.5 38q-133 0 -257 -56t-214.5 -150.5t-144.5 -225.5t-54 -274q0 -164 58 -303t153.5 -229.5t216 -141.5t248.5 -51q99 0 196.5 29t187 86t160.5 153.5 t107 220.5h-510v115h660q-17 -150 -79.5 -279.5t-163 -226.5t-244 -152t-312.5 -55q-174 0 -323 58.5t-258 164.5t-170.5 263.5t-61.5 347.5z" />
<glyph unicode="H" horiz-adv-x="1718" d="M260 0v1610h123v-731h950v731h123v-1610h-123v772h-950v-772h-123z" />
<glyph unicode="I" horiz-adv-x="643" d="M260 0v1610h123v-1610h-123z" />
<glyph unicode="J" horiz-adv-x="688" d="M31 -10v104q46 0 81.5 4t81 22t75 49.5t50.5 91.5t21 142v1209h123v-1176q0 -124 -31 -212.5t-90.5 -138.5t-135.5 -72.5t-175 -22.5z" />
<glyph unicode="K" horiz-adv-x="1347" d="M260 0v1610h123v-699l735 699h150l-750 -717l830 -893h-174l-791 850v-850h-123z" />
<glyph unicode="L" horiz-adv-x="1054" d="M260 0v1610h123v-1504h618v-106h-741z" />
<glyph unicode="M" horiz-adv-x="1994" d="M260 0v1671l748 -940l727 938v-1669h-123v1327l-608 -792l-621 792v-1327h-123z" />
<glyph unicode="N" horiz-adv-x="1742" d="M260 0v1681l1100 -1394v1351h123v-1701l-1100 1394v-1331h-123z" />
<glyph unicode="O" horiz-adv-x="1880" d="M131 799q0 170 55 319t156 261.5t255.5 177.5t342.5 65q186 0 340.5 -65t256 -177.5t157 -261.5t55.5 -319q0 -171 -55.5 -321t-157 -262.5t-255.5 -177.5t-341 -65q-191 0 -346 65t-255 177.5t-154 262t-54 321.5zM264 805q0 -158 53.5 -294.5t144.5 -229.5t215 -146 t263 -53q138 0 261 50.5t215.5 141t146 227t53.5 298.5q0 163 -53.5 298.5t-146 224.5t-215 138t-261.5 49q-140 0 -263 -48t-215 -136t-145 -222.5t-53 -297.5z" />
<glyph unicode="P" horiz-adv-x="1183" d="M260 0v1610h402q233 0 370 -119t137 -340q0 -66 -18.5 -130t-60.5 -125t-103.5 -106.5t-154 -73.5t-205.5 -28h-244v-688h-123zM383 795h240q196 0 312 102.5t116 251.5q0 45 -7.5 87t-33 92.5t-66 87.5t-113.5 62t-169 25h-279v-708z" />
<glyph unicode="Q" horiz-adv-x="1880" d="M131 799q0 170 55 319t156 261.5t255.5 177.5t342.5 65q186 0 340.5 -65t256 -177.5t157 -261.5t55.5 -319q0 -197 -72.5 -365.5t-208.5 -281.5q121 -82 240 -95l-49 -88q-144 23 -277 121q-191 -117 -442 -117q-191 0 -346 65t-255 177.5t-154 262t-54 321.5zM264 805 q0 -158 53.5 -294.5t144.5 -229.5t215 -146t263 -53q188 0 344 90q-66 60 -110 133l75 62q55 -73 121 -136q116 95 181 240t65 328q0 163 -53.5 298.5t-146 224.5t-215 138t-261.5 49q-140 0 -263 -48t-215 -136t-145 -222.5t-53 -297.5z" />
<glyph unicode="R" horiz-adv-x="1253" d="M260 0v1610h404q82 0 153.5 -14t137 -48t112.5 -85.5t74.5 -132.5t27.5 -183q0 -49 -13.5 -103.5t-53 -120t-99.5 -116t-164.5 -85t-236.5 -34.5l615 -688h-168l-666 770v-770h-123zM383 795h221q117 0 206.5 32.5t140 86t75.5 114.5t25 127q0 32 -7 69t-32 89 t-64.5 92.5t-113.5 69t-170 28.5h-281v-708z" />
<glyph unicode="S" horiz-adv-x="1118" d="M78 193l88 67q39 -41 64 -63.5t69.5 -52t98.5 -43t120 -13.5q73 0 141.5 32.5t117 101.5t48.5 159q0 97 -49.5 176.5t-122.5 120.5l-291 164q-128 71 -196 167t-68 240q0 174 121 280.5t305 106.5q267 0 375 -182l-88 -55q-66 84 -134.5 110.5t-152.5 26.5 q-49 0 -99.5 -15.5t-96.5 -46.5t-75.5 -86t-29.5 -124q0 -58 15.5 -108t34.5 -80.5t52 -59.5t50.5 -40t47.5 -27q6 -3 9 -5l270 -151q109 -59 179.5 -155.5t70.5 -234.5q0 -84 -29 -158.5t-84 -133t-143 -93t-198 -34.5q-124 0 -229.5 45.5t-190.5 163.5z" />
<glyph unicode="T" horiz-adv-x="1028" d="M0 1503v107h1028v-107h-453v-1503h-122v1503h-453z" />
<glyph unicode="U" horiz-adv-x="1693" d="M223 643v969h123v-889q0 -301 136.5 -463t371.5 -162q233 0 363.5 160.5t130.5 464.5v889h122v-969q0 -100 -23 -195t-72.5 -180t-120 -149t-174 -101.5t-226.5 -37.5q-124 0 -228.5 35.5t-178 97.5t-124.5 146.5t-75.5 181t-24.5 202.5z" />
<glyph unicode="V" horiz-adv-x="1261" d="M12 1610h133l471 -1370l514 1370h132l-656 -1725z" />
<glyph unicode="W" horiz-adv-x="2007" d="M47 1610h133l367 -1315l469 1423l442 -1419l365 1311h137l-496 -1737l-454 1460l-461 -1458z" />
<glyph unicode="X" horiz-adv-x="1185" d="M0 0l518 829l-489 779h149l414 -660l414 662h139l-483 -772l524 -838h-146l-452 719l-449 -719h-139z" />
<glyph unicode="Y" horiz-adv-x="1187" d="M6 1608h139l455 -727l447 729h133l-525 -848v-762h-123v760z" />
<glyph unicode="Z" horiz-adv-x="1351" d="M102 0l996 1503h-938v107h1149l-1002 -1504h993v-106h-1198z" />
<glyph unicode="[" horiz-adv-x="847" d="M238 -383v1993h473v-94h-351v-1805h357v-94h-479z" />
<glyph unicode="\" horiz-adv-x="995" d="M154 1608h114l574 -1608h-113z" />
<glyph unicode="]" horiz-adv-x="847" d="M131 -289h356v1805h-350v94h473v-1993h-479v94z" />
<glyph unicode="^" d="M98 803l568 821h108l563 -819h-118l-500 698l-502 -700h-119z" />
<glyph unicode="_" horiz-adv-x="1118" d="M0 -168h1118v-111h-1118v111z" />
<glyph unicode="`" horiz-adv-x="1024" d="M406 1378h114l135 -268h-114z" />
<glyph unicode="a" horiz-adv-x="1105" d="M98 270q0 59 23 112.5t70.5 101t134.5 76t202 28.5q42 0 128.5 -5t127.5 -14v99q0 123 -75.5 170t-225.5 47q-152 0 -268 -74l-47 96q159 78 344 78q87 0 154 -14t120 -45t81 -86t28 -133v-707h-111v92q-83 -65 -167.5 -90t-186.5 -25q-52 0 -97 8t-89.5 28.5t-75.5 52.5 t-50.5 84.5t-19.5 119.5zM211 260q0 -91 66 -141.5t186 -50.5q80 0 169.5 34.5t151.5 85.5v289q-117 19 -280 19q-135 0 -214 -57.5t-79 -178.5z" />
<glyph unicode="b" horiz-adv-x="1247" d="M225 0v1614h109v-823q39 75 133.5 132.5t237.5 57.5q198 0 319 -134t121 -384q0 -125 -52 -234.5t-155.5 -180.5t-237.5 -71q-137 0 -231 54t-135 129v-160h-109zM340 465q0 -50 11.5 -101t39 -103t67 -92.5t102 -65.5t138.5 -25q146 0 236 109.5t90 289.5 q0 179 -87 292.5t-249 113.5q-87 0 -155 -34t-109.5 -93t-62.5 -133t-21 -158z" />
<glyph unicode="c" horiz-adv-x="1032" d="M102 487q0 222 130 360t346 138q102 0 196 -39.5t154 -118.5l-74 -79q-63 71 -144 102t-157 31q-147 0 -238.5 -109t-91.5 -293q0 -177 104.5 -288t243.5 -111q93 0 177 38t143 103l61 -82q-79 -93 -168.5 -127.5t-208.5 -34.5q-206 0 -339.5 141t-133.5 369z" />
<glyph unicode="d" horiz-adv-x="1247" d="M102 500q0 125 52 234.5t155.5 180t237.5 70.5q137 0 231 -54t135 -128v811h109v-1614h-109v172q-39 -75 -133 -132.5t-237 -57.5q-198 0 -319.5 134t-121.5 384zM223 485q0 -179 87 -292t249 -113q87 0 155 34t109.5 93t62.5 133t21 158q0 50 -11.5 101t-39 103 t-67 92.5t-102 65.5t-138.5 25q-146 0 -236 -110t-90 -290z" />
<glyph unicode="e" horiz-adv-x="1103" d="M102 481q0 125 42 224.5t111.5 159t153 90t173.5 30.5q203 0 319.5 -121t116.5 -381h-797q3 -87 30.5 -158t67 -116t89 -75.5t95 -43t87.5 -12.5q195 0 344 164l70 -92q-99 -91 -191 -132t-223 -41q-71 0 -139 18t-131.5 58.5t-111.5 98t-77 142.5t-29 187zM227 588h668 q-6 130 -95 214.5t-216 84.5q-58 0 -113.5 -17t-106.5 -51.5t-87.5 -94t-49.5 -136.5z" />
<glyph unicode="f" horiz-adv-x="595" d="M66 862v96h159v400q0 41 5 74.5t13 58.5t23.5 44.5t29.5 32.5t37.5 21.5t42.5 13.5t49.5 7.5t52 3t57.5 0.5v-92h-2q-31 0 -45 -0.5t-37 -1.5t-33 -4.5t-25 -9.5t-21 -15l-15 -22.5t-11.5 -32t-5 -42t-2.5 -53.5v-383h194v-96h-194v-862h-113v862h-159z" />
<glyph unicode="g" horiz-adv-x="1228" d="M102 500q0 125 52 234.5t155.5 180t237.5 70.5q137 0 231 -54t135 -128v155h109v-929q0 -103 -27.5 -182t-71.5 -126.5t-106 -78t-123.5 -41.5t-132.5 -11q-255 0 -395 129l59 82q49 -52 148 -86t172 -34q172 0 270 79t98 238v174q-39 -75 -133 -132.5t-237 -57.5 q-198 0 -319.5 134t-121.5 384zM223 485q0 -179 87 -292t249 -113q87 0 155 34t109.5 93t62.5 133t21 158q0 50 -11.5 101t-39 103t-67 92.5t-102 65.5t-138.5 25q-146 0 -236 -110t-90 -290z" />
<glyph unicode="h" horiz-adv-x="1193" d="M225 0v1612h111v-795q59 86 139.5 125t165.5 39q22 0 45 -2t58 -10.5t66 -22.5t64 -40t56 -60t38 -86.5t15 -116.5v-643h-111v563q0 314 -235 314q-144 0 -223.5 -92.5t-79.5 -239.5v-545h-109z" />
<glyph unicode="i" horiz-adv-x="561" d="M225 0v958h111v-958h-111zM225 1184v239h111v-239h-111z" />
<glyph unicode="j" horiz-adv-x="552" d="M-8 -242q9 3 26.5 0.5t40 1t46.5 7.5t47.5 20.5t42 39t30 63t11.5 92.5v976h110v-1001q0 -130 -81.5 -214.5t-237.5 -84.5q-15 0 -35 4v96zM236 1184v239h110v-239h-110z" />
<glyph unicode="k" horiz-adv-x="956" d="M225 0v1612h111v-1084l432 430h147l-376 -378l417 -580h-147l-358 498l-117 -117v-381h-109z" />
<glyph unicode="l" horiz-adv-x="561" d="M225 0v1610h111v-1610h-111z" />
<glyph unicode="m" horiz-adv-x="1843" d="M225 0v958h111v-139q64 94 141.5 128t184.5 34q85 0 172 -48t124 -138q43 94 133 140t199 46q147 0 244.5 -85.5t97.5 -238.5v-657h-110v610q0 53 -12 97t-40 84t-83 63t-132 23q-70 0 -125 -29.5t-86.5 -77t-47 -99.5t-15.5 -104v-567h-109v590q0 140 -61.5 213.5 t-183.5 73.5q-135 0 -214 -94t-79 -230v-553h-109z" />
<glyph unicode="n" horiz-adv-x="1193" d="M225 0v958h111v-139q44 62 105 101t106 50t86 11q45 0 90 -8.5t93 -31.5t84 -58t59.5 -93.5t23.5 -132.5v-657h-111v590q0 287 -243 287q-125 0 -210 -87.5t-85 -222.5v-567h-109z" />
<glyph unicode="o" horiz-adv-x="1191" d="M102 483q0 99 33 189t94 160t156 111.5t211 41.5t211 -41.5t156 -111.5t94 -160t33 -189q0 -100 -29 -185t-77.5 -143t-113 -99t-134 -60t-140.5 -19q-93 0 -179.5 32t-157.5 92t-114 159.5t-43 222.5zM217 483q0 -187 104.5 -299t278.5 -112q166 0 270.5 112.5 t104.5 298.5q0 102 -31.5 182t-85 128t-120 73t-140.5 25q-76 0 -143 -25t-121 -73t-85.5 -128t-31.5 -182z" />
<glyph unicode="p" horiz-adv-x="1247" d="M225 -410v1368h109v-167q39 75 133.5 132.5t237.5 57.5q198 0 319 -134t121 -384q0 -125 -52 -234.5t-155.5 -180.5t-237.5 -71q-137 0 -231 54t-135 129v-570h-109zM340 465q0 -50 11.5 -101t39 -103t67 -92.5t102 -65.5t138.5 -25q146 0 236 109.5t90 289.5 q0 179 -87 292.5t-249 113.5q-87 0 -155 -34t-109.5 -93t-62.5 -133t-21 -158z" />
<glyph unicode="q" horiz-adv-x="1228" d="M102 500q0 125 52 234.5t155.5 180t237.5 70.5q137 0 231 -54t135 -128v155h109v-1368h-109v582q-39 -75 -133 -132.5t-237 -57.5q-198 0 -319.5 134t-121.5 384zM223 485q0 -179 87 -292t249 -113q87 0 155 34t109.5 93t62.5 133t21 158q0 50 -11.5 101t-39 103 t-67 92.5t-102 65.5t-138.5 25q-146 0 -236 -110t-90 -290z" />
<glyph unicode="r" horiz-adv-x="808" d="M225 0v958h111v-153q122 176 289 176q69 0 113.5 -17t95.5 -51l-58 -106q-61 61 -164 61q-106 0 -191 -85t-85 -183v-600h-111z" />
<glyph unicode="s" horiz-adv-x="876" d="M145 55l41 99q58 -38 127 -60t127 -22q49 0 94 13.5t80 50t35 91.5q0 23 -5.5 43.5t-12 35t-21.5 29.5t-24 23t-30.5 19.5t-30.5 16t-34 15t-32 13.5l-101 45q-37 16 -64 31.5t-63 46.5t-55.5 79t-19.5 109q0 114 85 183t210 69q165 0 272 -63l-45 -91 q-47 27 -108.5 44.5t-112.5 17.5q-90 0 -140.5 -42t-50.5 -106q0 -41 12 -71t39 -53t50 -36t65 -32l98 -45q101 -44 137 -69q97 -69 97 -193q0 -133 -88.5 -201t-235.5 -68q-177 0 -295 78z" />
<glyph unicode="t" horiz-adv-x="643" d="M76 868v90h145v359h115v-359h201v-90h-201v-544q0 -55 8.5 -97t24.5 -67t33.5 -41.5t42.5 -23.5t42.5 -9t42.5 -2q49 0 74 10v-92q-41 -16 -104 -16q-39 0 -73.5 6.5t-73.5 27.5t-67 54.5t-46.5 92.5t-18.5 136v565h-145z" />
<glyph unicode="u" horiz-adv-x="1193" d="M211 299v659h111v-606q0 -71 18.5 -123.5t44.5 -80.5t64 -44t67.5 -20t65.5 -4q44 0 92 21t90 59t69 99t27 134v565h109v-958h-111v147q-38 -61 -119.5 -115.5t-165.5 -54.5q-170 0 -266 84.5t-96 237.5z" />
<glyph unicode="v" horiz-adv-x="880" d="M47 958h113l286 -759l287 759h105l-398 -1021z" />
<glyph unicode="w" horiz-adv-x="1404" d="M47 958h123l270 -751l262 799l277 -799l268 751h111l-387 -1038l-271 789l-266 -789z" />
<glyph unicode="x" horiz-adv-x="903" d="M53 0l330 506l-299 452h135l232 -350l229 350h117l-287 -442l340 -516h-131l-275 414l-268 -414h-123z" />
<glyph unicode="y" horiz-adv-x="940" d="M82 958h121l291 -872l249 872h117l-328 -1085q-87 -291 -307 -291q-60 0 -125 19l31 100q55 -20 96 -20q46 0 83 21t59 50.5t37 67t21 64.5t7 48z" />
<glyph unicode="z" horiz-adv-x="937" d="M57 0l619 838h-561v106h770l-613 -842h596v-102h-811z" />
<glyph unicode="{" horiz-adv-x="899" d="M121 541v110h49q48 0 81 12t51.5 30.5t28.5 51t12.5 62.5t2.5 76v381q0 89 15.5 149.5t54.5 107t109.5 68t176.5 21.5h72v-97h-78q-57 0 -98 -13t-63.5 -33.5t-35.5 -54.5t-16.5 -65t-3.5 -77v-334q0 -18 1 -52t0.5 -50t-2 -43.5t-7 -42.5t-15.5 -36.5t-26.5 -35.5 t-39.5 -30t-55.5 -29t-74.5 -25q38 -14 68 -28.5t52.5 -28.5t39 -31.5t27.5 -31.5t18 -35.5t10 -36.5t4.5 -40.5t1 -41.5t-1 -46t-0.5 -49v-293q0 -45 3.5 -76.5t16.5 -65t35.5 -54t63.5 -34t98 -13.5h78v-95h-72q-106 0 -176.5 22t-109.5 68t-54.5 106.5t-15.5 148.5v346 q0 48 -2.5 81t-13 69.5t-28.5 57.5t-51.5 35.5t-80.5 14.5h-49z" />
<glyph unicode="|" horiz-adv-x="598" d="M238 -383v1993h122v-1993h-122z" />
<glyph unicode="}" horiz-adv-x="899" d="M125 -313h78q57 0 98 13.5t63.5 34t35.5 54t16.5 65t3.5 76.5v293q0 19 -0.5 49t-1 46t1 41.5t4.5 40.5t10 36.5t18 35.5t27.5 31.5t39 31.5t52.5 28.5t68 28.5q-42 12 -74.5 25t-55.5 29t-39.5 30t-26.5 35.5t-15.5 36.5t-7 42.5t-2 43.5t0.5 50t1 52v334q0 46 -3.5 77 t-16.5 65t-35.5 54.5t-63.5 33.5t-98 13h-78v97h72q106 0 176.5 -21.5t109.5 -68t54.5 -107t15.5 -149.5v-381q0 -46 2.5 -76t12.5 -62.5t28.5 -51t51.5 -30.5t81 -12h49v-110h-49q-47 0 -80.5 -14.5t-51.5 -35.5t-28.5 -57.5t-13 -69.5t-2.5 -81v-346q0 -88 -15.5 -148.5 t-54.5 -106.5t-109.5 -68t-176.5 -22h-72v95z" />
<glyph unicode="~" horiz-adv-x="1124" d="M82 504q14 101 67 172.5t125 71.5q69 0 170.5 -38.5t194.5 -77t141 -38.5h7q22 0 34.5 0.5t34 6.5t35 17.5t27.5 34.5t22 56h102q-14 -103 -67 -174.5t-125 -71.5q-60 0 -175 38.5t-213 77.5t-118 39h-6q-22 0 -34.5 -0.5t-34 -6.5t-35 -17t-28 -34t-22.5 -56h-102z" />
<glyph unicode="&#xa1;" horiz-adv-x="573" d="M223 248l41 573h49l37 -571v-633h-127v631zM233 1059v168h127v-168h-127z" />
<glyph unicode="&#xa2;" horiz-adv-x="1208" d="M147 580q0 84 27 171t77.5 166.5t133 140t184.5 83.5v198h70v-188q16 2 51 2q33 0 49 -2v188h70v-196q117 -20 200 -72t117 -96l-82 -74l-8 8q-7 8 -12.5 13.5t-18 16t-25 19t-31.5 19t-39 19t-46.5 16t-54.5 12.5v-913q61 13 117 43.5t81 51t60 54.5l80 -67 q-83 -83 -156 -129t-182 -62v-197h-70v191h-30q-20 0 -70 4v-195h-70v209q-63 16 -120.5 44.5t-113.5 76t-97 108.5t-66 148t-25 189zM266 580q0 -173 84.5 -291.5t218.5 -163.5v895q-68 -19 -122.5 -59t-87.5 -87.5t-54.5 -103t-30 -102t-8.5 -88.5zM639 109q44 -7 74 -7 h26v930q-16 2 -47 2q-37 0 -53 -2v-923z" />
<glyph unicode="&#xa3;" horiz-adv-x="1304" d="M135 147q0 87 49.5 140t137.5 53q59 0 95 -14.5t91 -53.5q41 66 59.5 113.5t18.5 97.5q0 19 -2 29h-320v70h305q-15 56 -51 100h-254v70h195l-99 114q-7 8 -29 33.5t-29 33.5t-25 31t-24.5 33.5t-20.5 33t-19 37t-14 38t-12 44t-6 47t-3 54.5q0 88 43 161.5t112 120 t151.5 72t164.5 25.5q117 0 209.5 -34t146 -88.5t80.5 -116.5t27 -125h-117q-18 117 -107 186.5t-243 69.5q-79 0 -159.5 -36t-134.5 -98.5t-54 -132.5q0 -46 11 -86.5t32.5 -75.5t40 -58.5t48 -56t42.5 -48.5q139 -172 143 -178h385v-70h-337q28 -54 36 -100h301v-70h-292 v-18q0 -118 -99 -275q160 -127 295 -127q29 0 53 3t56.5 15.5t55.5 34t41 64t21 100.5h130q0 -148 -94 -236.5t-255 -88.5q-97 0 -179.5 32.5t-180.5 110.5q-25 -41 -50.5 -69.5t-44.5 -42.5t-44.5 -21.5t-39 -8.5t-38.5 -1q-89 0 -144 51.5t-55 111.5zM244 160 q0 -31 32 -54.5t56 -23.5q34 0 59 25t64 86q-3 2 -21 12.5t-26 14.5t-23.5 11t-29.5 10t-29 3q-14 0 -30.5 -5t-34 -25.5t-17.5 -53.5z" />
<glyph unicode="&#xa4;" horiz-adv-x="1024" d="M111 647l186 184q-84 91 -84 216q0 103 61 180l-161 164l53 51l162 -164q81 63 188 63q124 0 209 -88l186 187l52 -54l-195 -190q43 -70 43 -158q0 -102 -66 -184l213 -213l-53 -51l-211 213q-86 -60 -186 -60q-82 0 -154 43l-192 -192zM283 1047q0 -95 65 -164.5 t160 -69.5t164 65t69 160t-65 164.5t-160 69.5t-164 -65t-69 -160z" />
<glyph unicode="&#xa5;" horiz-adv-x="1187" d="M39 1610h145l385 -758l410 758h131l-485 -844v-162h440v-72h-440v-172h440v-73h-440v-287h-123v287h-410v73h410v172h-410v72h410v160z" />
<glyph unicode="&#xa6;" horiz-adv-x="598" d="M238 -385v797h122v-797h-122zM238 813v797h122v-797h-122z" />
<glyph unicode="&#xa7;" horiz-adv-x="1359" d="M129 682q0 57 23 111t60.5 95t88 77t102 61t105.5 43q-93 49 -152 121t-59 145q0 144 113 224.5t327 80.5q151 0 353 -71l-33 -92q-68 31 -158 54t-162 23q-139 0 -237.5 -61.5t-98.5 -157.5q0 -61 74.5 -118.5t165.5 -90.5l236 -86q63 -24 107 -44.5t95.5 -55.5t83 -74 t53 -97t21.5 -128q0 -41 -13.5 -79.5t-31 -66.5t-52 -57t-56.5 -45t-67 -38t-61 -29t-60.5 -24t-45.5 -17q213 -144 213 -279q0 -70 -25.5 -126.5t-68 -94t-100 -63.5t-119 -37t-127.5 -11q-71 0 -137 13.5t-96 24.5t-120 46l45 88q63 -23 93 -33.5t93 -23t122 -12.5 q49 0 103.5 12.5t105.5 36.5t84.5 66.5t33.5 95.5q0 78 -76 144.5t-155 94.5l-236 84q-45 17 -74.5 28.5t-70.5 31.5t-67.5 39t-56 47.5t-46.5 60t-28 73.5t-11 91zM240 682q0 -179 249 -266l213 -74q46 2 115 26.5t137.5 62t117 92.5t48.5 110q0 47 -8.5 82t-33.5 74 t-77 72.5t-133 62.5l-243 88q-64 -3 -155.5 -58t-160.5 -133.5t-69 -138.5z" />
<glyph unicode="&#xa8;" horiz-adv-x="1024" d="M281 1108v123h102v-123h-102zM672 1108v123h102v-123h-102z" />
<glyph unicode="&#xa9;" horiz-adv-x="1236" d="M76 1079q0 147 72.5 272t197.5 198t272 73t272 -73t198 -198t73 -272t-73 -272t-198 -197.5t-272 -72.5q-110 0 -210.5 43t-173 115.5t-115.5 173t-43 210.5zM176 1079q0 -185 129 -316.5t313 -131.5t315.5 131.5t131.5 316.5t-131.5 317t-315.5 132t-313 -132t-129 -317 zM324 1075q0 145 84.5 238.5t216.5 93.5q68 0 121 -20t104 -72l-62 -74q-67 70 -167 70q-89 0 -145 -65t-56 -171q0 -101 60.5 -172.5t154.5 -71.5t166 103l73 -57q-76 -140 -247 -140q-140 0 -221.5 93t-81.5 245z" />
<glyph unicode="&#xaa;" horiz-adv-x="688" d="M80 1188q0 79 63.5 136.5t198.5 57.5q85 0 150 -10v55q0 70 -45 96.5t-132 26.5q-102 0 -161 -39l-31 62q96 49 211 49q235 0 235 -172v-430l-75 4l-2 47q-89 -65 -207 -65q-40 0 -74.5 8.5t-65 28.5t-48 57t-17.5 88zM158 1182q0 -53 38 -82t107 -29q47 0 101 20t88 50 v168q-57 8 -164 8q-78 0 -124 -33t-46 -102z" />
<glyph unicode="&#xab;" horiz-adv-x="1003" d="M117 424v137l311 309v-153l-227 -225l227 -226v-151zM559 424v137l311 309v-153l-227 -225l227 -226v-151z" />
<glyph unicode="&#xac;" horiz-adv-x="1124" d="M164 780v115h794v-498h-118v383h-676z" />
<glyph unicode="&#xad;" horiz-adv-x="645" d="M100 459v110h445v-110h-445z" />
<glyph unicode="&#xae;" horiz-adv-x="1236" d="M76 1079q0 147 72.5 272t197.5 198t272 73t272 -73t198 -198t73 -272t-73 -272t-198 -197.5t-272 -72.5q-110 0 -210.5 43t-173 115.5t-115.5 173t-43 210.5zM176 1079q0 -185 129 -316.5t313 -131.5t315.5 131.5t131.5 316.5t-131.5 317t-315.5 132t-313 -132t-129 -317 zM428 780v613h213q83 0 136.5 -44t53.5 -130q0 -75 -48 -128t-132 -53l215 -258h-125l-221 283v-283h-92zM520 1100l82 -4q43 -2 71.5 9.5t40.5 34.5t15.5 41.5t3.5 43.5q0 21 -3 33t-14.5 28t-41 23.5t-76.5 7.5l-78 -4v-213z" />
<glyph unicode="&#xaf;" horiz-adv-x="1024" d="M299 1280v168h463v-168h-463z" />
<glyph unicode="&#xb0;" horiz-adv-x="634" d="M70 1188q0 97 72.5 166t176.5 69q108 0 177 -66t69 -169q0 -101 -71.5 -168.5t-180.5 -67.5q-116 0 -179.5 65.5t-63.5 170.5zM170 1188q0 -68 41 -109t106 -41t105.5 42.5t40.5 107.5q0 63 -41 105t-105 42t-105.5 -42.5t-41.5 -104.5z" />
<glyph unicode="&#xb1;" horiz-adv-x="1124" d="M162 0v113h801v-113h-801zM164 539v112h338v340h112v-340h342v-112h-342v-340h-112v340h-338z" />
<glyph unicode="&#xb2;" horiz-adv-x="1024" d="M238 969l284 288q1 2 16.5 18t26.5 27.5t27.5 32.5t27.5 38t19 37.5t8 37.5q0 104 -129 104q-64 0 -98.5 -30t-34.5 -76v-35h-123v35q0 86 70 144.5t184 58.5t188 -47t74 -148q0 -35 -16.5 -73t-41 -69t-40.5 -48t-27 -27l-186 -168h338v-100h-567z" />
<glyph unicode="&#xb3;" horiz-adv-x="1024" d="M252 1010l63 82q102 -54 193 -54q65 0 107 31t42 78q0 94 -149 94h-78v92h78q56 0 90.5 30.5t34.5 78.5q0 92 -127 92q-34 0 -73.5 -20t-67.5 -56l-78 62q87 106 237 106q119 0 176.5 -53.5t57.5 -122.5q0 -77 -111 -150q63 -21 99 -60t36 -93q0 -92 -72.5 -145.5 t-201.5 -53.5q-135 0 -256 62z" />
<glyph unicode="&#xb4;" horiz-adv-x="1024" d="M383 1106l203 375h108l-202 -375h-109z" />
<glyph unicode="&#xb5;" horiz-adv-x="1107" d="M53 825v45h25q24 0 60 -2t59 -2q21 0 51 2t51 2h27v-585q0 -94 42.5 -138.5t141.5 -44.5q111 0 203 58v493q0 111 -18.5 141.5t-88.5 30.5h-18v45h28q22 0 57 -2t58 -2q21 0 52 2t51 2h28v-591q0 -119 19.5 -160t66.5 -41q15 0 27.5 2.5t19 4t16.5 10.5t12.5 11t14 16.5 t13.5 16.5h36q-44 -182 -225 -182q-36 0 -63 13.5t-43.5 38.5t-25.5 48t-17 56q-25 -25 -61.5 -51.5t-104.5 -54t-133 -27.5q-117 0 -172 61v-57q0 -59 28.5 -152t28.5 -123q0 -64 -25.5 -94.5t-64.5 -30.5q-82 0 -82 125q0 31 24.5 123.5t24.5 151.5v669q0 111 -19 141.5 t-89 30.5h-15z" />
<glyph unicode="&#xb6;" horiz-adv-x="1665" d="M131 799q0 171 67.5 322t181.5 257.5t269 168t326 61.5h602v-127h-602v-1358h600v-127h-614q-167 0 -319.5 61.5t-265 166.5t-179 255.5t-66.5 319.5zM1237 307v981h131v-981h-131z" />
<glyph unicode="&#xb7;" horiz-adv-x="1024" d="M303 649l213 244l207 -252l-207 -244z" />
<glyph unicode="&#xb8;" horiz-adv-x="1024" d="M98 -395l86 96q34 -17 61.5 -23t73.5 -6q31 0 49 1.5t45.5 9t43.5 27t22 50.5v13q0 49 -94 49q-40 0 -104 -21l-33 47l155 234l121 -47l-90 -125q42 6 66 6q131 0 131 -111q0 -23 -6 -47q-14 -71 -63.5 -116.5t-116 -63.5t-152.5 -18q-110 0 -195 45z" />
<glyph unicode="&#xb9;" horiz-adv-x="1024" d="M322 1397v94q57 7 120.5 39.5t92.5 79.5h90v-643h-125v506q-64 -66 -178 -76z" />
<glyph unicode="&#xba;" horiz-adv-x="841" d="M119 1317q0 126 80 215.5t221 89.5t222 -89.5t81 -215.5q0 -77 -27 -138t-71.5 -98t-97 -56t-107.5 -19q-121 0 -211 81.5t-90 229.5zM199 1317q0 -111 60.5 -177.5t162.5 -66.5q97 0 159 67.5t62 176.5q0 116 -64.5 176.5t-156.5 60.5q-95 0 -159 -60.5t-64 -176.5z" />
<glyph unicode="&#xbb;" horiz-adv-x="1003" d="M133 113v153l227 226l-227 225v151l311 -309v-137zM575 113v153l228 226l-228 225v151l312 -309v-137z" />
<glyph unicode="&#xbc;" d="M203 766v90h1009v-90h-1009zM348 223l381 449h84v-436h123v-101h-123v-127h-115v129h-348zM467 236h231v274zM485 1397v94q57 7 120.5 39.5t92.5 79.5h90v-643h-124v506q-64 -66 -179 -76z" />
<glyph unicode="&#xbd;" d="M203 766v90h1009v-90h-1009zM410 10l284 289q2 2 17 17.5t26 27.5t27.5 32.5t27.5 38t19 37.5t8 37q0 105 -129 105q-64 0 -98.5 -30.5t-34.5 -76.5v-34h-123v34q0 86 70 144.5t184 58.5t188 -46.5t74 -147.5q0 -35 -16.5 -73t-41 -69t-40.5 -48t-27 -27l-186 -168h338 v-101h-567zM485 1397v94q57 7 120.5 39.5t92.5 79.5h90v-643h-124v506q-64 -66 -179 -76z" />
<glyph unicode="&#xbe;" d="M203 766v90h1009v-90h-1009zM348 223l381 449h84v-436h123v-101h-123v-127h-115v129h-348zM438 1016l60 80q100 -54 184 -54q62 0 102.5 30t40.5 79q0 98 -143 98h-72v92h72q55 0 87 30.5t32 78.5q0 92 -121 92q-32 0 -70.5 -20t-64.5 -56l-74 62q80 108 227 108 q114 0 169 -54.5t55 -123.5q0 -81 -109 -149q62 -21 96.5 -61.5t34.5 -96.5q0 -92 -69.5 -145.5t-192.5 -53.5q-130 0 -244 64zM467 236h231v274z" />
<glyph unicode="&#xbf;" horiz-adv-x="907" d="M111 -66q0 56 17.5 115.5t51 118.5t53 89t52.5 75q67 89 110 220t43 271h129q0 -113 -19 -197.5t-59 -176.5q-23 -54 -88.5 -161t-110 -197t-44.5 -150q0 -61 20.5 -104.5t56.5 -66.5t78 -33.5t93 -10.5q31 0 60 5.5t66 21.5t67 52t46 89l113 -25q-3 -98 -114.5 -176 t-258.5 -78q-44 0 -88.5 7.5t-95 29t-89 55.5t-64 93t-25.5 134zM440 1059v168h127v-168h-127z" />
<glyph unicode="&#xc0;" horiz-adv-x="1378" d="M92 0l592 1683l602 -1683h-125l-184 543h-576l-184 -543h-125zM436 645h496l-256 715zM522 2011h115l135 -268h-115z" />
<glyph unicode="&#xc1;" horiz-adv-x="1378" d="M92 0l592 1683l602 -1683h-125l-184 543h-576l-184 -543h-125zM436 645h496l-256 715zM635 1741l203 375h108l-203 -375h-108z" />
<glyph unicode="&#xc2;" horiz-adv-x="1378" d="M92 0l592 1683l602 -1683h-125l-184 543h-576l-184 -543h-125zM436 645h496l-256 715zM463 1743l164 256h131l166 -256h-99l-133 207l-131 -207h-98z" />
<glyph unicode="&#xc3;" horiz-adv-x="1378" d="M92 0l592 1683l602 -1683h-125l-184 543h-576l-184 -543h-125zM424 1743q13 58 46.5 96.5t82.5 38.5q47 0 134.5 -27.5t129.5 -27.5q39 0 47 53h103q-14 -64 -54.5 -99.5t-83.5 -35.5q-44 0 -131 25.5t-114 25.5q-30 0 -40 -10q-13 -11 -20 -39h-100zM436 645h496 l-256 715z" />
<glyph unicode="&#xc4;" horiz-adv-x="1378" d="M92 0l592 1683l602 -1683h-125l-184 543h-576l-184 -543h-125zM436 645h496l-256 715zM442 1743v123h103v-123h-103zM834 1743v123h102v-123h-102z" />
<glyph unicode="&#xc5;" horiz-adv-x="1378" d="M92 0l592 1683l602 -1683h-125l-184 543h-576l-184 -543h-125zM436 645h496l-256 715zM516 1907q0 73 46.5 120.5t115.5 47.5q71 0 116.5 -47.5t45.5 -120.5q0 -72 -46.5 -119t-115.5 -47t-115.5 47t-46.5 119zM557 1907q0 -55 35 -92t86 -37q45 0 83 38t38 91 q0 51 -33.5 91t-87.5 40t-87.5 -40.5t-33.5 -90.5z" />
<glyph unicode="&#xc6;" horiz-adv-x="2033" d="M0 0l1057 1610h862v-103h-684v-628h657v-103h-657v-674h737v-102h-860v539h-620l-342 -539h-150zM551 641h561v860z" />
<glyph unicode="&#xc7;" horiz-adv-x="1591" d="M131 807q0 162 61 311.5t166 260.5t255 177t319 66q145 0 282 -40.5t234 -125.5l-80 -82q-97 69 -199 104t-235 35q-176 0 -330.5 -95t-247 -258.5t-92.5 -352.5q0 -150 51.5 -284t141.5 -231t217 -153.5t272 -56.5q271 0 500 209l78 -86q-104 -116 -250 -170.5 t-291 -61.5l-76 -110q135 33 227.5 -18t92.5 -150q0 -92 -68.5 -144.5t-161.5 -54.5q-177 0 -301 92l52 80q45 -36 110.5 -58.5t120.5 -21.5q55 0 95 31.5t40 77.5q0 42 -44.5 66t-100.5 24q-92 0 -121 -23l-70 68l88 143q-158 13 -292 76t-233 167.5t-154.5 256 t-55.5 332.5z" />
<glyph unicode="&#xc8;" horiz-adv-x="1181" d="M260 0v1610h807v-107h-684v-622h657v-107h-657v-668h737v-106h-860zM496 1993h114l135 -269h-114z" />
<glyph unicode="&#xc9;" horiz-adv-x="1181" d="M260 0v1610h807v-107h-684v-622h657v-107h-657v-668h737v-106h-860zM584 1720l202 375h109l-203 -375h-108z" />
<glyph unicode="&#xca;" horiz-adv-x="1181" d="M260 0v1610h807v-107h-684v-622h657v-107h-657v-668h737v-106h-860zM442 1743l164 256h131l166 -256h-98l-133 207l-131 -207h-99z" />
<glyph unicode="&#xcb;" horiz-adv-x="1181" d="M260 0v1610h807v-107h-684v-622h657v-107h-657v-668h737v-106h-860zM422 1722v123h102v-123h-102zM813 1722v123h102v-123h-102z" />
<glyph unicode="&#xcc;" horiz-adv-x="643" d="M207 1993h115l135 -269h-115zM260 0v1610h123v-1610h-123z" />
<glyph unicode="&#xcd;" horiz-adv-x="643" d="M260 0v1610h123v-1610h-123zM262 1720l203 375h108l-202 -375h-109z" />
<glyph unicode="&#xce;" horiz-adv-x="643" d="M94 1722l164 256h131l166 -256h-98l-133 207l-131 -207h-99zM260 0v1610h123v-1610h-123z" />
<glyph unicode="&#xcf;" horiz-adv-x="643" d="M90 1722v123h103v-123h-103zM260 0v1610h123v-1610h-123zM481 1722v123h103v-123h-103z" />
<glyph unicode="&#xd0;" horiz-adv-x="1638" d="M4 778v78h256v754h387q147 0 274.5 -31t236 -97t185.5 -163t120.5 -236.5t43.5 -310.5q0 -174 -67 -320.5t-180.5 -244.5t-265 -152.5t-320.5 -54.5h-414v778h-256zM383 106h252q161 0 300 50.5t237 138.5t154 211.5t56 265.5q0 78 -9.5 148.5t-33.5 145.5t-61.5 137.5 t-98.5 119t-140 95.5t-189.5 62t-243.5 23h-223v-647h311v-78h-311v-672z" />
<glyph unicode="&#xd1;" horiz-adv-x="1742" d="M260 0v1681l1100 -1394v1351h123v-1701l-1100 1394v-1331h-123zM606 1722q13 58 46.5 97t82.5 39q47 0 134.5 -28t129.5 -28q17 0 30.5 13t17.5 40h102q-14 -64 -54 -99.5t-83 -35.5q-44 0 -131.5 26t-114.5 26q-13 0 -17.5 -0.5t-14.5 -4.5t-16 -15t-11 -30h-101z" />
<glyph unicode="&#xd2;" horiz-adv-x="1880" d="M131 799q0 170 55 319t156 261.5t255.5 177.5t342.5 65q186 0 340.5 -65t256 -177.5t157 -261.5t55.5 -319q0 -171 -55.5 -321t-157 -262.5t-255.5 -177.5t-341 -65q-191 0 -346 65t-255 177.5t-154 262t-54 321.5zM264 805q0 -158 53.5 -294.5t144.5 -229.5t215 -146 t263 -53q138 0 261 50.5t215.5 141t146 227t53.5 298.5q0 163 -53.5 298.5t-146 224.5t-215 138t-261.5 49q-140 0 -263 -48t-215 -136t-145 -222.5t-53 -297.5zM784 1993h115l135 -269h-114z" />
<glyph unicode="&#xd3;" horiz-adv-x="1880" d="M131 799q0 170 55 319t156 261.5t255.5 177.5t342.5 65q186 0 340.5 -65t256 -177.5t157 -261.5t55.5 -319q0 -171 -55.5 -321t-157 -262.5t-255.5 -177.5t-341 -65q-191 0 -346 65t-255 177.5t-154 262t-54 321.5zM264 805q0 -158 53.5 -294.5t144.5 -229.5t215 -146 t263 -53q138 0 261 50.5t215.5 141t146 227t53.5 298.5q0 163 -53.5 298.5t-146 224.5t-215 138t-261.5 49q-140 0 -263 -48t-215 -136t-145 -222.5t-53 -297.5zM836 1720l202 375h109l-203 -375h-108z" />
<glyph unicode="&#xd4;" horiz-adv-x="1880" d="M131 799q0 170 55 319t156 261.5t255.5 177.5t342.5 65q186 0 340.5 -65t256 -177.5t157 -261.5t55.5 -319q0 -171 -55.5 -321t-157 -262.5t-255.5 -177.5t-341 -65q-191 0 -346 65t-255 177.5t-154 262t-54 321.5zM264 805q0 -158 53.5 -294.5t144.5 -229.5t215 -146 t263 -53q138 0 261 50.5t215.5 141t146 227t53.5 298.5q0 163 -53.5 298.5t-146 224.5t-215 138t-261.5 49q-140 0 -263 -48t-215 -136t-145 -222.5t-53 -297.5zM713 1722l164 256h131l166 -256h-99l-133 207l-131 -207h-98z" />
<glyph unicode="&#xd5;" horiz-adv-x="1880" d="M131 799q0 170 55 319t156 261.5t255.5 177.5t342.5 65q186 0 340.5 -65t256 -177.5t157 -261.5t55.5 -319q0 -171 -55.5 -321t-157 -262.5t-255.5 -177.5t-341 -65q-191 0 -346 65t-255 177.5t-154 262t-54 321.5zM264 805q0 -158 53.5 -294.5t144.5 -229.5t215 -146 t263 -53q138 0 261 50.5t215.5 141t146 227t53.5 298.5q0 163 -53.5 298.5t-146 224.5t-215 138t-261.5 49q-140 0 -263 -48t-215 -136t-145 -222.5t-53 -297.5zM694 1722q13 58 46.5 97t82.5 39q47 0 134.5 -28t129.5 -28q17 0 30.5 13t17.5 40h102q-14 -64 -54 -99.5 t-83 -35.5q-44 0 -131.5 26t-114.5 26q-13 0 -17.5 -0.5t-14.5 -4.5t-16 -15t-11 -30h-101z" />
<glyph unicode="&#xd6;" horiz-adv-x="1880" d="M131 799q0 170 55 319t156 261.5t255.5 177.5t342.5 65q186 0 340.5 -65t256 -177.5t157 -261.5t55.5 -319q0 -171 -55.5 -321t-157 -262.5t-255.5 -177.5t-341 -65q-191 0 -346 65t-255 177.5t-154 262t-54 321.5zM264 805q0 -158 53.5 -294.5t144.5 -229.5t215 -146 t263 -53q138 0 261 50.5t215.5 141t146 227t53.5 298.5q0 163 -53.5 298.5t-146 224.5t-215 138t-261.5 49q-140 0 -263 -48t-215 -136t-145 -222.5t-53 -297.5zM698 1722v123h103v-123h-103zM1090 1722v123h102v-123h-102z" />
<glyph unicode="&#xd7;" horiz-adv-x="1124" d="M145 221l336 369l-336 368l84 93l336 -369l346 385l84 -92l-346 -385l346 -385l-84 -92l-346 385l-336 -369z" />
<glyph unicode="&#xd8;" horiz-adv-x="1880" d="M131 799q0 170 55 319t156 261.5t255.5 177.5t342.5 65q261 0 453 -125l125 184l79 -45l-131 -192q136 -114 209.5 -281.5t73.5 -363.5q0 -171 -55.5 -321t-157 -262.5t-255.5 -177.5t-341 -65q-224 0 -405 93l-132 -197l-81 49l133 197q-156 109 -240 289t-84 395z M264 805q0 -185 70 -335.5t194 -246.5l797 1174q-168 112 -385 112q-140 0 -263 -48t-215 -136t-145 -222.5t-53 -297.5zM606 170q151 -88 334 -88q138 0 261 50.5t215.5 141t146 227t53.5 298.5q0 171 -57.5 308t-161.5 232z" />
<glyph unicode="&#xd9;" horiz-adv-x="1693" d="M223 643v969h123v-889q0 -301 136.5 -463t371.5 -162q233 0 363.5 160.5t130.5 464.5v889h122v-969q0 -100 -23 -195t-72.5 -180t-120 -149t-174 -101.5t-226.5 -37.5q-124 0 -228.5 35.5t-178 97.5t-124.5 146.5t-75.5 181t-24.5 202.5zM678 1993h115l135 -269h-115z " />
<glyph unicode="&#xda;" horiz-adv-x="1693" d="M223 643v969h123v-889q0 -301 136.5 -463t371.5 -162q233 0 363.5 160.5t130.5 464.5v889h122v-969q0 -100 -23 -195t-72.5 -180t-120 -149t-174 -101.5t-226.5 -37.5q-124 0 -228.5 35.5t-178 97.5t-124.5 146.5t-75.5 181t-24.5 202.5zM709 1720l202 375h109l-203 -375 h-108z" />
<glyph unicode="&#xdb;" horiz-adv-x="1693" d="M223 643v969h123v-889q0 -301 136.5 -463t371.5 -162q233 0 363.5 160.5t130.5 464.5v889h122v-969q0 -100 -23 -195t-72.5 -180t-120 -149t-174 -101.5t-226.5 -37.5q-124 0 -228.5 35.5t-178 97.5t-124.5 146.5t-75.5 181t-24.5 202.5zM635 1722l164 256h131l166 -256 h-99l-133 207l-131 -207h-98z" />
<glyph unicode="&#xdc;" horiz-adv-x="1693" d="M223 643v969h123v-889q0 -301 136.5 -463t371.5 -162q233 0 363.5 160.5t130.5 464.5v889h122v-969q0 -100 -23 -195t-72.5 -180t-120 -149t-174 -101.5t-226.5 -37.5q-124 0 -228.5 35.5t-178 97.5t-124.5 146.5t-75.5 181t-24.5 202.5zM608 1489v123h103v-123h-103z M999 1489v123h103v-123h-103z" />
<glyph unicode="&#xdd;" horiz-adv-x="1187" d="M6 1608h139l455 -727l447 729h133l-525 -848v-762h-123v760zM473 1720l203 375h108l-202 -375h-109z" />
<glyph unicode="&#xde;" horiz-adv-x="1183" d="M260 0v1610h119v-328h283q236 0 371.5 -109.5t135.5 -328.5q0 -83 -31 -156.5t-93.5 -134t-170 -96t-247.5 -35.5h-244v-422h-123zM383 528h240q201 0 314.5 85t113.5 229q0 44 -7.5 84.5t-33 88t-66 81.5t-113.5 57t-169 23h-279v-648z" />
<glyph unicode="&#xdf;" horiz-adv-x="1236" d="M225 0v1210q0 93 22.5 165.5t58.5 117t85.5 73t98.5 39.5t102 11q159 0 253.5 -82t94.5 -225q0 -48 -13.5 -95.5t-44 -98t-89.5 -90.5t-140 -60q103 -25 182 -78.5t126.5 -125.5t71.5 -153.5t24 -169.5q0 -105 -23.5 -187.5t-63 -135t-94.5 -86.5t-113 -48t-124 -14 q-96 0 -199 41v94q90 -39 199 -39q148 0 225.5 99t77.5 268q0 93 -25 167.5t-64.5 125t-103.5 92t-128.5 67t-151.5 50.5v102h76q122 0 202 74t80 197q0 36 -10.5 70t-35 69t-74 56.5t-117.5 21.5q-39 0 -71.5 -7t-68 -29t-59.5 -59t-39.5 -101.5t-15.5 -151.5v-1174h-111z " />
<glyph unicode="&#xe0;" horiz-adv-x="1105" d="M98 270q0 59 23 112.5t70.5 101t134.5 76t202 28.5q42 0 128.5 -5.5t127.5 -13.5v99q0 123 -75.5 170t-225.5 47q-152 0 -268 -74l-47 96q159 78 344 78q87 0 154 -14t120 -45t81 -86t28 -133v-707h-111v92q-83 -65 -167.5 -90t-186.5 -25q-52 0 -97 8t-89.5 28.5 t-75.5 52.5t-50.5 84.5t-19.5 119.5zM211 260q0 -91 66 -141.5t186 -50.5q80 0 169.5 34.5t151.5 85.5v289q-117 19 -280 19q-135 0 -214 -57.5t-79 -178.5zM356 1378h115l135 -268h-114z" />
<glyph unicode="&#xe1;" horiz-adv-x="1105" d="M98 270q0 59 23 112.5t70.5 101t134.5 76t202 28.5q42 0 128.5 -5.5t127.5 -13.5v99q0 123 -75.5 170t-225.5 47q-152 0 -268 -74l-47 96q159 78 344 78q87 0 154 -14t120 -45t81 -86t28 -133v-707h-111v92q-83 -65 -167.5 -90t-186.5 -25q-52 0 -97 8t-89.5 28.5 t-75.5 52.5t-50.5 84.5t-19.5 119.5zM211 260q0 -91 66 -141.5t186 -50.5q80 0 169.5 34.5t151.5 85.5v289q-117 19 -280 19q-135 0 -214 -57.5t-79 -178.5zM449 1106l202 375h109l-203 -375h-108z" />
<glyph unicode="&#xe2;" horiz-adv-x="1105" d="M98 270q0 59 23 112.5t70.5 101t134.5 76t202 28.5q42 0 128.5 -5.5t127.5 -13.5v99q0 123 -75.5 170t-225.5 47q-152 0 -268 -74l-47 96q159 78 344 78q87 0 154 -14t120 -45t81 -86t28 -133v-707h-111v92q-83 -65 -167.5 -90t-186.5 -25q-52 0 -97 8t-89.5 28.5 t-75.5 52.5t-50.5 84.5t-19.5 119.5zM211 260q0 -91 66 -141.5t186 -50.5q80 0 169.5 34.5t151.5 85.5v289q-117 19 -280 19q-135 0 -214 -57.5t-79 -178.5zM276 1108l164 256h131l166 -256h-98l-133 207l-131 -207h-99z" />
<glyph unicode="&#xe3;" horiz-adv-x="1105" d="M98 270q0 59 23 112.5t70.5 101t134.5 76t202 28.5q42 0 128.5 -5.5t127.5 -13.5v99q0 123 -75.5 170t-225.5 47q-152 0 -268 -74l-47 96q159 78 344 78q87 0 154 -14t120 -45t81 -86t28 -133v-707h-111v92q-83 -65 -167.5 -90t-186.5 -25q-52 0 -97 8t-89.5 28.5 t-75.5 52.5t-50.5 84.5t-19.5 119.5zM211 260q0 -91 66 -141.5t186 -50.5q80 0 169.5 34.5t151.5 85.5v289q-117 19 -280 19q-135 0 -214 -57.5t-79 -178.5zM225 1108q13 58 46.5 96.5t82.5 38.5q47 0 134.5 -27.5t129.5 -27.5q17 0 30.5 13t17.5 40h102q-14 -64 -54 -99.5 t-83 -35.5q-44 0 -131.5 25.5t-114.5 25.5q-14 0 -17.5 -0.5t-14 -4t-16.5 -14.5t-11 -30h-101z" />
<glyph unicode="&#xe4;" horiz-adv-x="1105" d="M98 270q0 59 23 112.5t70.5 101t134.5 76t202 28.5q42 0 128.5 -5.5t127.5 -13.5v99q0 123 -75.5 170t-225.5 47q-152 0 -268 -74l-47 96q159 78 344 78q87 0 154 -14t120 -45t81 -86t28 -133v-707h-111v92q-83 -65 -167.5 -90t-186.5 -25q-52 0 -97 8t-89.5 28.5 t-75.5 52.5t-50.5 84.5t-19.5 119.5zM211 260q0 -91 66 -141.5t186 -50.5q80 0 169.5 34.5t151.5 85.5v289q-117 19 -280 19q-135 0 -214 -57.5t-79 -178.5zM272 1108v123h103v-123h-103zM664 1108v123h102v-123h-102z" />
<glyph unicode="&#xe5;" horiz-adv-x="1105" d="M98 270q0 59 23 112.5t70.5 101t134.5 76t202 28.5q42 0 128.5 -5.5t127.5 -13.5v99q0 123 -75.5 170t-225.5 47q-152 0 -268 -74l-47 96q159 78 344 78q87 0 154 -14t120 -45t81 -86t28 -133v-707h-111v92q-83 -65 -167.5 -90t-186.5 -25q-52 0 -97 8t-89.5 28.5 t-75.5 52.5t-50.5 84.5t-19.5 119.5zM211 260q0 -91 66 -141.5t186 -50.5q80 0 169.5 34.5t151.5 85.5v289q-117 19 -280 19q-135 0 -214 -57.5t-79 -178.5zM346 1264q0 73 46.5 120.5t115.5 47.5q71 0 116.5 -47.5t45.5 -120.5q0 -72 -46.5 -119t-115.5 -47t-115.5 47 t-46.5 119zM387 1264q0 -55 35 -92t86 -37q45 0 83 38t38 91q0 51 -33.5 91t-87.5 40t-87.5 -40.5t-33.5 -90.5z" />
<glyph unicode="&#xe6;" horiz-adv-x="1816" d="M98 250q0 69 25 126t78 103.5t145 72.5t215 26h221v94q0 44 -13 79t-31.5 56.5t-46.5 37.5t-50.5 23.5t-51.5 11.5t-41.5 4.5t-27.5 0.5q-107 0 -169.5 -18.5t-139.5 -61.5l-45 100q75 36 171.5 57t182.5 21q66 0 118.5 -7.5t104.5 -27.5t87.5 -61t50.5 -101 q56 89 157.5 142t218.5 53q200 0 318.5 -122t118.5 -380h-791q-6 -93 24 -171t83.5 -126.5t120 -75t135.5 -26.5q81 0 147 23t107.5 54t89.5 81l69 -93q-99 -91 -190.5 -131.5t-222.5 -40.5q-129 0 -241 57.5t-177 149.5q-34 -37 -51 -54.5t-58.5 -51.5t-78.5 -51t-95 -31.5 t-123 -14.5q-171 0 -257.5 74.5t-86.5 198.5zM213 260q0 -190 221 -190q62 0 122.5 17.5t123 64.5t102.5 118v213h-204q-106 0 -186 -22t-129.5 -73.5t-49.5 -127.5zM907 578h664q0 86 -46.5 157t-117 108.5t-147.5 37.5q-48 0 -101.5 -16.5t-106.5 -50.5t-93 -95.5 t-52 -140.5z" />
<glyph unicode="&#xe7;" horiz-adv-x="1032" d="M102 487q0 222 130 360t346 138q102 0 196 -39.5t154 -118.5l-74 -79q-63 71 -144 102t-157 31q-147 0 -238.5 -109t-91.5 -293q0 -177 104.5 -288t243.5 -111q93 0 177 38t143 103l61 -82q-78 -92 -166.5 -127t-203.5 -35l-50 -98q115 28 190 -13t75 -120 q0 -77 -49.5 -113.5t-129.5 -38.5q-70 0 -111 9t-120 47l45 69q95 -57 166 -57q53 0 84 22.5t31 63.5q0 35 -34 51.5t-83 16.5q-79 0 -107 -17l-49 62l62 121q-178 27 -289 163t-111 342z" />
<glyph unicode="&#xe8;" horiz-adv-x="1103" d="M102 481q0 125 42 224.5t111.5 159t153 90t173.5 30.5q203 0 319.5 -121t116.5 -381h-797q3 -87 30.5 -158t67 -116t89 -75.5t95 -43t87.5 -12.5q195 0 344 164l70 -92q-99 -91 -191 -132t-223 -41q-71 0 -139 18t-131.5 58.5t-111.5 98t-77 142.5t-29 187zM227 588h668 q-6 130 -95 214.5t-216 84.5q-58 0 -113.5 -17t-106.5 -51.5t-87.5 -94t-49.5 -136.5zM434 1378h115l135 -268h-115z" />
<glyph unicode="&#xe9;" horiz-adv-x="1103" d="M102 481q0 125 42 224.5t111.5 159t153 90t173.5 30.5q203 0 319.5 -121t116.5 -381h-797q3 -87 30.5 -158t67 -116t89 -75.5t95 -43t87.5 -12.5q195 0 344 164l70 -92q-99 -91 -191 -132t-223 -41q-71 0 -139 18t-131.5 58.5t-111.5 98t-77 142.5t-29 187zM227 588h668 q-6 130 -95 214.5t-216 84.5q-58 0 -113.5 -17t-106.5 -51.5t-87.5 -94t-49.5 -136.5zM489 1106l203 375h109l-203 -375h-109z" />
<glyph unicode="&#xea;" horiz-adv-x="1103" d="M102 481q0 125 42 224.5t111.5 159t153 90t173.5 30.5q203 0 319.5 -121t116.5 -381h-797q3 -87 30.5 -158t67 -116t89 -75.5t95 -43t87.5 -12.5q195 0 344 164l70 -92q-99 -91 -191 -132t-223 -41q-71 0 -139 18t-131.5 58.5t-111.5 98t-77 142.5t-29 187zM227 588h668 q-6 130 -95 214.5t-216 84.5q-58 0 -113.5 -17t-106.5 -51.5t-87.5 -94t-49.5 -136.5zM348 1108l164 256h131l166 -256h-98l-133 207l-132 -207h-98z" />
<glyph unicode="&#xeb;" horiz-adv-x="1103" d="M102 481q0 125 42 224.5t111.5 159t153 90t173.5 30.5q203 0 319.5 -121t116.5 -381h-797q3 -87 30.5 -158t67 -116t89 -75.5t95 -43t87.5 -12.5q195 0 344 164l70 -92q-99 -91 -191 -132t-223 -41q-71 0 -139 18t-131.5 58.5t-111.5 98t-77 142.5t-29 187zM227 588h668 q-6 130 -95 214.5t-216 84.5q-58 0 -113.5 -17t-106.5 -51.5t-87.5 -94t-49.5 -136.5zM336 1108v123h102v-123h-102zM727 1108v123h102v-123h-102z" />
<glyph unicode="&#xec;" horiz-adv-x="561" d="M111 1378h114l135 -268h-114zM221 0v958h90v-958h-90z" />
<glyph unicode="&#xed;" horiz-adv-x="561" d="M215 1106l203 375h108l-202 -375h-109zM221 0v958h90v-958h-90z" />
<glyph unicode="&#xee;" horiz-adv-x="561" d="M35 1108l164 256h131l166 -256h-99l-133 207l-131 -207h-98zM221 0v958h90v-958h-90z" />
<glyph unicode="&#xef;" horiz-adv-x="561" d="M14 1108v123h103v-123h-103zM221 0v958h90v-958h-90zM406 1108v123h102v-123h-102z" />
<glyph unicode="&#xf0;" horiz-adv-x="1206" d="M102 547q0 134 59 246.5t171.5 180.5t255.5 68q233 0 370 -176q-27 183 -165 412l-258 -78l-23 74l238 72q-117 172 -236 268h145q118 -124 195 -236l260 80l23 -74q-238 -73 -240 -73q207 -336 207 -725q0 -273 -132.5 -438.5t-363.5 -165.5q-229 0 -367.5 148 t-138.5 417zM225 543q0 -135 41.5 -238.5t128 -165t209.5 -61.5q110 0 198 65t134.5 169t46.5 225q0 80 -19.5 145.5t-53 108t-73.5 73.5t-85 47.5t-82.5 23.5t-71.5 7q-62 0 -126 -25t-120 -72.5t-91.5 -126t-35.5 -175.5z" />
<glyph unicode="&#xf1;" horiz-adv-x="1193" d="M225 0v958h111v-139q44 62 105 101t106 50t86 11q45 0 90 -8.5t93 -31.5t84 -58t59.5 -93.5t23.5 -132.5v-657h-111v590q0 287 -243 287q-125 0 -210 -87.5t-85 -222.5v-567h-109zM348 1108q13 58 46.5 96.5t82.5 38.5q47 0 134.5 -27.5t129.5 -27.5q39 0 47 53h103 q-14 -64 -54 -99.5t-83 -35.5q-44 0 -131.5 25.5t-114.5 25.5q-14 0 -17.5 -0.5t-14 -4t-16.5 -14.5t-11 -30h-101z" />
<glyph unicode="&#xf2;" horiz-adv-x="1191" d="M102 483q0 99 33 189t94 160t156 111.5t211 41.5t211 -41.5t156 -111.5t94 -160t33 -189q0 -100 -29 -185t-77.5 -143t-113 -99t-134 -60t-140.5 -19q-93 0 -179.5 32t-157.5 92t-114 159.5t-43 222.5zM217 483q0 -187 104.5 -299t278.5 -112q166 0 270.5 112.5 t104.5 298.5q0 102 -31.5 182t-85 128t-120 73t-140.5 25q-76 0 -143 -25t-121 -73t-85.5 -128t-31.5 -182zM438 1378h115l135 -268h-115z" />
<glyph unicode="&#xf3;" horiz-adv-x="1191" d="M102 483q0 99 33 189t94 160t156 111.5t211 41.5t211 -41.5t156 -111.5t94 -160t33 -189q0 -100 -29 -185t-77.5 -143t-113 -99t-134 -60t-140.5 -19q-93 0 -179.5 32t-157.5 92t-114 159.5t-43 222.5zM217 483q0 -187 104.5 -299t278.5 -112q166 0 270.5 112.5 t104.5 298.5q0 102 -31.5 182t-85 128t-120 73t-140.5 25q-76 0 -143 -25t-121 -73t-85.5 -128t-31.5 -182zM530 1106l203 375h109l-203 -375h-109z" />
<glyph unicode="&#xf4;" horiz-adv-x="1191" d="M102 483q0 99 33 189t94 160t156 111.5t211 41.5t211 -41.5t156 -111.5t94 -160t33 -189q0 -100 -29 -185t-77.5 -143t-113 -99t-134 -60t-140.5 -19q-93 0 -179.5 32t-157.5 92t-114 159.5t-43 222.5zM217 483q0 -187 104.5 -299t278.5 -112q166 0 270.5 112.5 t104.5 298.5q0 102 -31.5 182t-85 128t-120 73t-140.5 25q-76 0 -143 -25t-121 -73t-85.5 -128t-31.5 -182zM358 1108l164 256h131l166 -256h-98l-133 207l-131 -207h-99z" />
<glyph unicode="&#xf5;" horiz-adv-x="1191" d="M102 483q0 99 33 189t94 160t156 111.5t211 41.5t211 -41.5t156 -111.5t94 -160t33 -189q0 -100 -29 -185t-77.5 -143t-113 -99t-134 -60t-140.5 -19q-93 0 -179.5 32t-157.5 92t-114 159.5t-43 222.5zM217 483q0 -187 104.5 -299t278.5 -112q166 0 270.5 112.5 t104.5 298.5q0 102 -31.5 182t-85 128t-120 73t-140.5 25q-76 0 -143 -25t-121 -73t-85.5 -128t-31.5 -182zM344 1108q13 58 46.5 96.5t82.5 38.5q47 0 134.5 -27.5t129.5 -27.5q39 0 47 53h103q-14 -64 -54 -99.5t-83 -35.5q-44 0 -131.5 25.5t-114.5 25.5q-30 0 -40 -10 q-13 -11 -20 -39h-100z" />
<glyph unicode="&#xf6;" horiz-adv-x="1191" d="M102 483q0 99 33 189t94 160t156 111.5t211 41.5t211 -41.5t156 -111.5t94 -160t33 -189q0 -100 -29 -185t-77.5 -143t-113 -99t-134 -60t-140.5 -19q-93 0 -179.5 32t-157.5 92t-114 159.5t-43 222.5zM217 483q0 -187 104.5 -299t278.5 -112q166 0 270.5 112.5 t104.5 298.5q0 102 -31.5 182t-85 128t-120 73t-140.5 25q-76 0 -143 -25t-121 -73t-85.5 -128t-31.5 -182zM354 1108v123h103v-123h-103zM745 1108v123h103v-123h-103z" />
<glyph unicode="&#xf7;" horiz-adv-x="1126" d="M174 406v112h776v-112h-776zM444 166q0 47 34 81t81 34q48 0 80.5 -33t32.5 -82q0 -50 -33.5 -82.5t-85.5 -32.5q-44 0 -76.5 34t-32.5 81zM444 760q0 47 34 80.5t81 33.5q48 0 80.5 -32.5t32.5 -81.5q0 -50 -33.5 -82.5t-85.5 -32.5q-44 0 -76.5 34t-32.5 81z" />
<glyph unicode="&#xf8;" horiz-adv-x="1191" d="M102 483q0 99 33 189t94 160t156 111.5t211 41.5q135 0 235 -53l142 213l63 -45q-80 -123 -137 -209q92 -69 141.5 -176.5t49.5 -231.5q0 -100 -29 -185t-77.5 -143t-113 -99t-134 -60t-140.5 -19q-134 0 -254 66l-115 -174l-65 49l112 170q-80 64 -126 164.5t-46 230.5z M217 483q0 -197 115 -309l446 676q-78 41 -180 41q-76 0 -143 -25t-121 -73t-85.5 -128t-31.5 -182zM395 125q86 -53 205 -53q166 0 270.5 112.5t104.5 298.5q0 211 -131 322z" />
<glyph unicode="&#xf9;" horiz-adv-x="1193" d="M211 299v659h111v-606q0 -71 18.5 -123.5t44.5 -80.5t64 -44t67.5 -20t65.5 -4q44 0 92 21t90 59t69 99t27 134v565h109v-958h-111v147q-38 -61 -119.5 -115.5t-165.5 -54.5q-170 0 -266 84.5t-96 237.5zM451 1378h114l135 -268h-114z" />
<glyph unicode="&#xfa;" horiz-adv-x="1193" d="M211 299v659h111v-606q0 -71 18.5 -123.5t44.5 -80.5t64 -44t67.5 -20t65.5 -4q44 0 92 21t90 59t69 99t27 134v565h109v-958h-111v147q-38 -61 -119.5 -115.5t-165.5 -54.5q-170 0 -266 84.5t-96 237.5zM489 1106l203 375h109l-203 -375h-109z" />
<glyph unicode="&#xfb;" horiz-adv-x="1193" d="M211 299v659h111v-606q0 -71 18.5 -123.5t44.5 -80.5t64 -44t67.5 -20t65.5 -4q44 0 92 21t90 59t69 99t27 134v565h109v-958h-111v147q-38 -61 -119.5 -115.5t-165.5 -54.5q-170 0 -266 84.5t-96 237.5zM358 1108l164 256h131l166 -256h-98l-133 207l-131 -207h-99z" />
<glyph unicode="&#xfc;" horiz-adv-x="1193" d="M211 299v659h111v-606q0 -71 18.5 -123.5t44.5 -80.5t64 -44t67.5 -20t65.5 -4q44 0 92 21t90 59t69 99t27 134v565h109v-958h-111v147q-38 -61 -119.5 -115.5t-165.5 -54.5q-170 0 -266 84.5t-96 237.5zM350 1108v123h103v-123h-103zM741 1108v123h103v-123h-103z" />
<glyph unicode="&#xfd;" horiz-adv-x="940" d="M82 958h121l291 -872l249 872h117l-328 -1085q-87 -291 -307 -291q-60 0 -125 19l31 100q55 -20 96 -20q46 0 83 21t59 50.5t37 67t21 64.5t7 48zM391 1106l203 375h108l-202 -375h-109z" />
<glyph unicode="&#xfe;" horiz-adv-x="1191" d="M170 -410v2020h109v-819q39 75 133 132.5t237 57.5q198 0 319.5 -134t121.5 -384q0 -125 -52 -234.5t-155.5 -180.5t-237.5 -71q-137 0 -231 54t-135 129v-570h-109zM285 465q0 -50 11.5 -101t39 -103t67 -92.5t102 -65.5t138.5 -25q146 0 236 109.5t90 289.5 q0 179 -87 292.5t-249 113.5q-87 0 -155 -34t-109.5 -93t-62.5 -133t-21 -158z" />
<glyph unicode="&#xff;" horiz-adv-x="940" d="M82 958h121l291 -872l249 872h117l-328 -1085q-87 -291 -307 -291q-60 0 -125 19l31 100q55 -20 96 -20q46 0 83 21t59 50.5t37 67t21 64.5t7 48zM231 1108v123h103v-123h-103zM623 1108v123h102v-123h-102z" />
<glyph unicode="&#x152;" horiz-adv-x="2502" d="M131 799q0 126 34 246t101 224.5t160 183t219 124t270 45.5q214 0 387 -90t279 -250v328h807v-103h-684v-628h657v-103h-657v-674h737v-102h-860v311q-103 -158 -267.5 -248t-371.5 -90q-171 0 -321.5 63.5t-258 172.5t-169.5 262.5t-62 327.5zM256 799q0 -125 40.5 -238 t109 -196.5t157 -145t186 -92.5t193.5 -31q132 0 249.5 51t204 141t137 222.5t50.5 288.5q0 164 -50 297.5t-139.5 221.5t-212 135.5t-266.5 47.5q-134 0 -256.5 -58t-210.5 -154t-140 -225t-52 -265z" />
<glyph unicode="&#x153;" horiz-adv-x="1935" d="M66 479q0 97 29 184.5t86.5 159.5t154.5 115t221 43q155 0 265 -66t167 -182q62 122 177 185t247 63q96 0 174 -28t137.5 -86.5t92 -157t32.5 -230.5h-796q3 -87 30.5 -157t66.5 -113.5t88.5 -72.5t95 -40.5t87.5 -11.5q60 0 118.5 17t103 43.5t74 49.5t48.5 44l70 -93 q-99 -91 -191 -131.5t-223 -40.5q-126 0 -245.5 64t-184.5 186q-57 -119 -170 -184.5t-264 -65.5q-98 0 -184.5 31t-156 91.5t-110 159.5t-40.5 224zM178 479q0 -120 57.5 -213t143.5 -139.5t180 -46.5q66 0 131 25.5t121 73t90.5 126t34.5 174.5q0 101 -35 180t-92 125 t-121.5 69.5t-130.5 23.5q-65 0 -129.5 -23.5t-121.5 -69.5t-92.5 -125.5t-35.5 -179.5zM1059 584h667q0 129 -95 211t-216 82q-41 0 -84 -9.5t-88 -32t-81.5 -55t-64.5 -83.5t-38 -113z" />
<glyph unicode="&#x178;" horiz-adv-x="1187" d="M6 1608h139l455 -727l447 729h133l-525 -848v-762h-123v760zM365 1722v123h102v-123h-102zM756 1722v123h102v-123h-102z" />
<glyph unicode="&#x2c6;" horiz-adv-x="1024" d="M297 1108l164 256h131l166 -256h-99l-133 207l-131 -207h-98z" />
<glyph unicode="&#x2dc;" horiz-adv-x="1024" d="M240 1108q13 58 46.5 96.5t82.5 38.5q47 0 134.5 -27.5t129.5 -27.5q39 0 47 53h102q-14 -64 -54 -99.5t-83 -35.5q-44 0 -131.5 25.5t-114.5 25.5q-14 0 -17.5 -0.5t-14 -4t-16.5 -14.5t-11 -30h-100z" />
<glyph unicode="&#x2000;" horiz-adv-x="1058" />
<glyph unicode="&#x2001;" horiz-adv-x="2116" />
<glyph unicode="&#x2002;" horiz-adv-x="1058" />
<glyph unicode="&#x2003;" horiz-adv-x="2116" />
<glyph unicode="&#x2004;" horiz-adv-x="705" />
<glyph unicode="&#x2005;" horiz-adv-x="529" />
<glyph unicode="&#x2006;" horiz-adv-x="352" />
<glyph unicode="&#x2007;" horiz-adv-x="352" />
<glyph unicode="&#x2008;" horiz-adv-x="264" />
<glyph unicode="&#x2009;" horiz-adv-x="423" />
<glyph unicode="&#x200a;" horiz-adv-x="117" />
<glyph unicode="&#x2010;" horiz-adv-x="645" d="M100 459v110h445v-110h-445z" />
<glyph unicode="&#x2011;" horiz-adv-x="645" d="M100 459v110h445v-110h-445z" />
<glyph unicode="&#x2012;" horiz-adv-x="645" d="M100 459v110h445v-110h-445z" />
<glyph unicode="&#x2013;" horiz-adv-x="1017" d="M61 459v110h895v-110h-895z" />
<glyph unicode="&#x2014;" horiz-adv-x="2041" d="M61 459v110h1919v-110h-1919z" />
<glyph unicode="&#x2018;" horiz-adv-x="512" d="M166 1171v89q0 100 13 166.5t30 100t55 87.5h80q-28 -84 -39.5 -144.5t-11.5 -134.5v-164h-127z" />
<glyph unicode="&#x2019;" horiz-adv-x="512" d="M168 1171q28 84 39.5 144.5t11.5 134.5v164h127v-88q0 -100 -13 -167t-30 -100.5t-55 -87.5h-80z" />
<glyph unicode="&#x201a;" horiz-adv-x="505" d="M145 -274q28 86 40 145t12 133v164h127v-88q0 -76 -5.5 -129t-21 -94t-29.5 -65t-43 -66h-80z" />
<glyph unicode="&#x201c;" horiz-adv-x="839" d="M166 1171v89q0 100 13 166.5t30 100t55 87.5h80q-28 -84 -39.5 -144.5t-11.5 -134.5v-164h-127zM494 1171v89q0 100 13 166.5t30 100t55 87.5h80q-28 -84 -39.5 -144.5t-11.5 -134.5v-164h-127z" />
<glyph unicode="&#x201d;" horiz-adv-x="839" d="M168 1171q28 84 39.5 144.5t11.5 134.5v164h127v-88q0 -100 -13 -167t-30 -100.5t-55 -87.5h-80zM496 1171q28 84 39.5 144.5t11.5 134.5v164h127v-88q0 -76 -5.5 -129t-21 -94.5t-29.5 -66t-43 -65.5h-79z" />
<glyph unicode="&#x201e;" horiz-adv-x="833" d="M145 -279q28 86 40 145.5t12 133.5v164h127v-88q0 -76 -5.5 -129t-21 -94.5t-29.5 -66t-43 -65.5h-80zM473 -279q28 84 39.5 144.5t11.5 134.5v164h127v-88q0 -100 -13 -167t-30 -100.5t-55 -87.5h-80z" />
<glyph unicode="&#x2022;" horiz-adv-x="1024" d="M162 647l354 406l346 -418l-344 -406z" />
<glyph unicode="&#x2026;" horiz-adv-x="2048" d="M340 0v168h127v-168h-127zM961 0v168h126v-168h-126zM1581 0v168h127v-168h-127z" />
<glyph unicode="&#x202f;" horiz-adv-x="423" />
<glyph unicode="&#x2039;" horiz-adv-x="561" d="M117 424v137l311 309v-153l-227 -225l227 -226v-153z" />
<glyph unicode="&#x203a;" horiz-adv-x="561" d="M133 115v151l227 226l-227 225v151l311 -309v-137z" />
<glyph unicode="&#x205f;" horiz-adv-x="529" />
<glyph unicode="&#x2122;" horiz-adv-x="1720" d="M72 1532v78h510v-78h-211v-727h-88v727h-211zM772 805v805h105l280 -439l262 439h107v-805h-82v665l-270 -403h-44l-278 406v-668h-80z" />
<glyph unicode="&#xe000;" horiz-adv-x="962" d="M0 0v963h963v-963h-963z" />
<glyph unicode="&#xfb01;" horiz-adv-x="1099" d="M66 862v96h159v400q0 53 9 93t21.5 67t37.5 45.5t46.5 28.5t59.5 15t65 6t73 1v-92h-2q-31 0 -45 -0.5t-37 -1.5t-33 -4.5t-25 -9.5t-21 -15l-15 -22.5t-11.5 -32t-5 -42t-2.5 -53.5v-383h440h94v-958h-110v862h-424v-862h-115v862h-159zM764 1184v239h110v-239h-110z " />
<glyph unicode="&#xfb02;" horiz-adv-x="1181" d="M66 862v96h159v400q0 53 9 93t21.5 67t37.5 45.5t46.5 28.5t59.5 15t65 6t73 1v-92h-2q-31 0 -45 -0.5t-37 -1.5t-33 -4.5t-25 -9.5t-21 -15l-15 -22.5t-11.5 -32t-5 -42t-2.5 -53.5v-383h195v-96h-195v-862h-115v862h-159zM846 0v1612h110v-1612h-110z" />
</font>
</defs>
</svg>
