<?xml version="1.0" standalone="no"?>
<!DOCTYPE svg PUBLIC "-//W3C//DTD SVG 1.1//EN" "http://www.w3.org/Graphics/SVG/1.1/DTD/svg11.dtd" >
<svg xmlns="http://www.w3.org/2000/svg">
<metadata></metadata>
<defs>
<font id="GillSansLightRegular" horiz-adv-x="1024" >
<font-face units-per-em="2048" ascent="1638" descent="-410" />
<missing-glyph horiz-adv-x="569" />
<glyph horiz-adv-x="0" />
<glyph horiz-adv-x="2048" />
<glyph unicode="&#xd;" horiz-adv-x="569" />
<glyph unicode=" "  horiz-adv-x="569" />
<glyph unicode="&#x09;" horiz-adv-x="569" />
<glyph unicode="&#xa0;" horiz-adv-x="569" />
<glyph unicode="!" horiz-adv-x="362" d="M114 0v199h133v-199h-133zM114 1392h133l-35 -997h-63z" />
<glyph unicode="&#x22;" horiz-adv-x="569" d="M76 1168v224h135v-224l-25 -256h-85zM359 1168v224h135v-224l-25 -256h-85z" />
<glyph unicode="#" horiz-adv-x="1352" d="M159 428v94h189l75 384h-264v94h284l88 428h95l-86 -428h383l88 428h95l-86 -428h166v-94h-186l-79 -384h265v-94h-283l-86 -413h-95l86 413h-385l-86 -413h-95l86 413h-169zM443 522h383l79 384h-387z" />
<glyph unicode="$" horiz-adv-x="1067" d="M72 140v110q209 -152 412 -175v567q-209 58 -306 147q-96 89 -96 220t106 230t296 110v64h98v-64q194 -9 351 -125v-115q-179 130 -351 143v-535l116 -41q294 -107 294 -340q0 -138 -110.5 -240t-299.5 -118v-224h-98v224q-140 6 -250.5 59.5t-161.5 102.5zM187 1014 q0 -173 232 -245l65 -20v503q-127 0 -212 -69t-85 -169zM582 75q128 4 216.5 78t88.5 179q0 165 -222 247l-83 31v-535z" />
<glyph unicode="%" horiz-adv-x="1430" d="M32 1081.5q0 138.5 96 235.5q97 97 235.5 97t235.5 -97t97 -235.5t-97 -235t-235.5 -96.5t-235.5 96q-96 97 -96 235.5zM80 -22l1131 1429h101l-1129 -1429h-103zM120 1081.5q0 -101.5 71 -172.5t172.5 -71t173 71t71.5 172.5t-71.5 173t-173 71.5t-172.5 -71.5t-71 -173 zM712 309.5q0 138.5 96 235.5q97 97 235.5 97t235.5 -97t97 -235.5t-97 -235t-235.5 -96.5t-235.5 96q-96 97 -96 235.5zM800 309.5q0 -101.5 71 -172.5t172.5 -71t173 71t71.5 172.5t-71.5 173t-173 71.5t-172.5 -71.5t-71 -173z" />
<glyph unicode="&#x26;" horiz-adv-x="1260" d="M53 308q0 139 93 249.5t250 177.5q-172 171 -172 311.5t95 228.5q96 88 232 88q138 0 220.5 -86.5t82.5 -199.5q0 -224 -285 -374l322 -324q97 131 156 317h115q-76 -244 -192 -397l288 -299h-137l-216 217q-208 -239 -484 -239q-169 0 -269 95q-99 96 -99 235zM170 326 q0 -107 69 -178q70 -70 198 -70q216 0 393 216l-360 366q-300 -127 -300 -334zM326 1066q0 -126 168 -287q258 106 258 287q0 88 -58.5 142.5t-154 54.5t-154.5 -58.5t-59 -138.5z" />
<glyph unicode="'" horiz-adv-x="455" d="M160 1168v224h135v-224l-25 -256h-85z" />
<glyph unicode="(" horiz-adv-x="682" d="M163 482q0 -291 114.5 -538t285.5 -408h102q-175 153 -286 404q-112 251 -112 529.5t110 527.5q109 249 290 414h-102q-161 -158 -281.5 -398t-120.5 -531z" />
<glyph unicode=")" horiz-adv-x="682" d="M15 1411h102q161 -158 281.5 -398t120.5 -531t-114.5 -538t-285.5 -408h-102q175 153 286 404q112 251 112 529.5t-110 527.5q-109 249 -290 414z" />
<glyph unicode="*" horiz-adv-x="961" d="M69 955v96l369 -37l2 15l-287 234l71 71l235 -289l10 6l-37 363h97l-37 -363l12 -6l235 289l69 -71l-283 -234l4 -15l363 37v-96l-363 37l-6 -8l285 -244l-69 -68l-235 299l-12 -3l37 -376h-97l33 377l-241 -297l-71 68l289 248z" />
<glyph unicode="+" horiz-adv-x="1352" d="M144 674v90h496v496h90v-496h496v-90h-496v-496h-90v496h-496z" />
<glyph unicode="," horiz-adv-x="362" d="M114 0v192h133v-133q0 -200 -133 -299v71q44 69 44 169h-44z" />
<glyph unicode="-" horiz-adv-x="641" d="M80 409v96h480v-96h-480z" />
<glyph unicode="." horiz-adv-x="362" d="M114 0v199h133v-199h-133z" />
<glyph unicode="/" horiz-adv-x="575" d="M6 -22l450 1436h94l-448 -1436h-96z" />
<glyph unicode="0" d="M65 692q0 348 130 535t313.5 187t314.5 -182.5t131 -517.5t-122 -535.5t-314.5 -200.5t-322.5 183t-130 531zM170 692q0 -251 88 -433.5t248.5 -182.5t251.5 181.5t91 436t-88.5 438.5t-251 184t-251 -186.5t-88.5 -437.5z" />
<glyph unicode="1" d="M464 0v1392h105v-1392h-105z" />
<glyph unicode="2" d="M75 0q647 625 647 1013q0 118 -83.5 210.5t-229.5 92.5q-92 0 -180.5 -52.5t-137.5 -105.5v127q144 129 325 129t296 -117t115 -285q0 -354 -512 -915h648v-97h-888z" />
<glyph unicode="3" d="M139 42v96q130 -62 297 -62t250.5 88t83.5 216.5t-90.5 215t-268.5 86.5v98q155 0 249 80t94 187t-84.5 188t-236 81t-281.5 -94v102q119 90 295.5 90t294 -98.5t117.5 -258.5q0 -127 -79 -210.5t-181 -109.5q118 -35 197 -122t79 -234q0 -183 -120 -293t-286.5 -110 t-329.5 64z" />
<glyph unicode="4" d="M29 537v34l697 843h39v-793h194v-84h-194v-537h-105v537h-631zM174 621h486v594z" />
<glyph unicode="5" d="M85 70v116q184 -110 336 -110t249.5 97.5t97.5 256.5t-103 250t-279 91q-103 0 -187 -36v657h592v-97h-494v-440q78 8 122 8q200 0 327 -115t127 -313.5t-129 -327.5t-315.5 -129t-343.5 92z" />
<glyph unicode="6" d="M126 477q0 497 585 937l60 -74q-438 -316 -519 -703q142 111 303 111t278.5 -104t117.5 -270t-108 -281t-288 -115t-305 124q-124 125 -124 375zM231 462q0 -178 87 -282t222 -104t220.5 79t85.5 201t-85.5 208t-225 86t-301.5 -130q-1 -6 -1 -28t-2 -30z" />
<glyph unicode="7" d="M64 1295v97h912l-637 -1414l-90 38l575 1279h-760z" />
<glyph unicode="8" d="M114 370q0 239 217 357q-185 125 -185 314q0 158 109.5 265.5t256 107.5t255 -108t108.5 -262q0 -209 -180 -317q74 -37 143 -125t69 -211q0 -183 -114.5 -298t-278 -115t-282.5 111q-118 111 -118 281zM219 379q0 -123 84.5 -213t210 -90t207 89t81.5 213t-85 210 t-207 86t-206.5 -86t-84.5 -209zM251 1042.5q0 -111.5 75 -191t184.5 -79.5t184.5 77.5t75 191t-75 194.5t-184.5 81t-184.5 -81t-75 -192.5z" />
<glyph unicode="9" d="M65 1029q0 160 108 272.5t296.5 112.5t304.5 -132.5t116 -355.5q0 -534 -595 -948l-59 74q470 346 528 698q-154 -106 -315.5 -106t-272.5 112.5t-111 272.5zM170 1030q0 -124 82 -206t209 -82q175 0 321 130q3 31 3 58q0 179 -81.5 282.5t-222 103.5t-226 -81 t-85.5 -205z" />
<glyph unicode=":" horiz-adv-x="362" d="M114 0v199h133v-199h-133zM114 721v199h133v-199h-133z" />
<glyph unicode=";" horiz-adv-x="362" d="M114 0v192h133v-133q0 -200 -133 -299v71q44 69 44 169h-44zM114 721v199h133v-199h-133z" />
<glyph unicode="&#x3c;" horiz-adv-x="1352" d="M141 674l1072 -448v100l-951 391l951 391v100l-1072 -448v-86z" />
<glyph unicode="=" horiz-adv-x="1352" d="M144 428v90h1072v-90h-1072zM144 918v90h1072v-90h-1072z" />
<glyph unicode="&#x3e;" horiz-adv-x="1352" d="M139 226v100l951 391l-951 391v100l1072 -448v-86z" />
<glyph unicode="?" horiz-adv-x="575" d="M45 1218l48 158q57 38 155 38t171.5 -80t73.5 -207t-68 -250l-127 -195q-69 -103 -69 -184q0 -44 18 -82l21 -45l-37 -28q-79 85 -79 184.5t118.5 291t118.5 318.5q0 83 -48 136.5t-108 53.5q-99 0 -168 -109h-20zM175 0v199h133v-199h-133z" />
<glyph unicode="@" horiz-adv-x="1638" d="M0 530.5q0 384.5 237 634t636 249.5q341 0 544 -198t203 -525q0 -270 -163 -464t-345 -194q-120 0 -120 115q0 54 16 93q-154 -208 -358 -208q-143 0 -251 112q-107 113 -107 310q0 246 155 426q156 180 372 180t302 -192l34 168h125l-166 -794q-10 -54 -10 -70 q0 -50 47 -50q118 0 251.5 163t133.5 420.5t-170 442t-499 184.5q-374 0 -578.5 -238.5t-204.5 -577.5t226 -548q227 -208 570 -208q437 0 670 319h102q-110 -190 -314.5 -295t-466.5 -105q-382 0 -627 233q-244 233 -244 617.5zM418 464q0 -156 74 -246q75 -89 184 -89 q173 0 284.5 192t111.5 374q0 107 -68 192t-193 85q-186 0 -289.5 -176t-103.5 -332z" />
<glyph unicode="A" horiz-adv-x="1366" d="M8 0l640 1399h59l640 -1399h-112l-221 479h-674l-220 -479h-112zM381 569h594l-299 655z" />
<glyph unicode="B" horiz-adv-x="1087" d="M164 0v1392h307q222 0 332 -102t110 -255q0 -209 -203 -310q325 -62 325 -357q0 -172 -129.5 -270t-329.5 -98h-412zM273 90h295q164 0 257 76.5t93 213t-101 208.5t-292 72h-252v-570zM273 750h161q362 0 362 276t-374 276h-149v-552z" />
<glyph unicode="C" horiz-adv-x="1386" d="M100 695.5q0 305.5 212 512t518 206.5q224 0 491 -119v-121q-262 140 -511 140t-421 -176.5t-172 -435t165 -441.5t452 -183q220 0 503 140v-111q-267 -129 -503 -129q-319 0 -527 206q-207 206 -207 511.5z" />
<glyph unicode="D" horiz-adv-x="1516" d="M164 0v1392h506q346 0 542.5 -190.5t196.5 -502t-197 -505.5t-523 -194h-525zM273 90h394q275 0 450 170.5t175 443.5t-184.5 435.5t-452.5 162.5h-382v-1212z" />
<glyph unicode="E" horiz-adv-x="1004" d="M164 0v1392h765v-90h-656v-559h639v-90h-639v-563h673v-90h-782z" />
<glyph unicode="F" horiz-adv-x="897" d="M159 0v1392h717v-90h-608v-530h549v-90h-549v-682h-109z" />
<glyph unicode="G" horiz-adv-x="1473" d="M102 694q0 318 213 519q214 201 536 201q207 0 472 -118v-122q-250 140 -502.5 140t-427 -168t-174.5 -449.5t183 -450t459 -168.5q213 0 385 87v376h-288v90h397v-533q-255 -120 -494 -120q-327 0 -543 199t-216 517z" />
<glyph unicode="H" horiz-adv-x="1473" d="M161 0v1392h109v-642h931v642h109v-1392h-109v660h-931v-660h-109z" />
<glyph unicode="I" horiz-adv-x="426" d="M159 0v1392h109v-1392h-109z" />
<glyph unicode="J" horiz-adv-x="426" d="M-91 -296q33 -8 65 -8q63 0 125.5 55t62.5 210v1431h109v-1410q0 -201 -86 -293.5t-204 -92.5q-23 0 -62 4z" />
<glyph unicode="K" horiz-adv-x="1087" d="M156 0v1392h109v-1392h-109zM265 696l664 696h136l-661 -696l724 -696h-137z" />
<glyph unicode="L" horiz-adv-x="961" d="M161 0v1392h109v-1302h688v-90h-797z" />
<glyph unicode="M" horiz-adv-x="1599" d="M158 0v1392h109l531 -645l531 645h109v-1392h-109v1241l-531 -654l-531 654v-1241h-109z" />
<glyph unicode="N" horiz-adv-x="1579" d="M159 0v1392h92l1060 -1218v1218h109v-1392h-90l-1062 1218v-1218h-109z" />
<glyph unicode="O" horiz-adv-x="1686" d="M105 696.5q0 315.5 220 516.5t524.5 201t518.5 -210.5t214 -508t-215.5 -507.5t-517 -210t-523.5 201q-221 202 -221 517.5zM222 695.5q0 -270.5 188 -442.5t437 -172t433.5 172t184.5 444t-185 444.5t-436 172.5t-436.5 -174t-185.5 -444.5z" />
<glyph unicode="P" horiz-adv-x="1044" d="M159 0v1392h414q203 0 317 -99t114 -272.5t-121 -270.5t-329 -97h-286v-653h-109zM268 743h249q370 0 370 280q0 131 -93 205t-253 74h-273v-559z" />
<glyph unicode="Q" horiz-adv-x="1686" d="M105 696.5q0 304.5 215 511t528 206.5t523.5 -201.5t210.5 -503t-190.5 -502t-471.5 -222.5q91 -69 219 -115t210.5 -46t146.5 48l22 -15l-121 -144q-363 43 -636 272q-77 0 -210.5 44.5t-246.5 158.5q-199 204 -199 508.5zM222 697q0 -260 170 -438t440.5 -178 t451.5 175.5t181 442t-176.5 441t-441 174.5t-445 -178.5t-180.5 -438.5z" />
<glyph unicode="R" horiz-adv-x="1174" d="M161 0v1392h381q215 0 331.5 -93t116.5 -261q0 -254 -268 -344q64 -22 167 -179l337 -515h-127l-300 463q-78 120 -142 162t-177 42h-210v-667h-109zM270 757h236q367 0 367 275q0 132 -94.5 201t-235.5 69h-273v-545z" />
<glyph unicode="S" horiz-adv-x="961" d="M95 1057.5q0 139.5 116.5 248t278 108.5t325.5 -88v-120q-202 108 -323 108t-200.5 -81.5t-79.5 -180t56 -159t175 -105.5l136 -54q300 -112 300 -371q0 -166 -119.5 -275.5t-288.5 -109.5t-360 127v129q121 -90 201.5 -123t154.5 -33q127 0 211 79.5t84 189t-56.5 175.5 t-191.5 120l-135 51q-146 59 -215 142t-69 222.5z" />
<glyph unicode="T" horiz-adv-x="1174" d="M0 1302v90h1165v-90h-528v-1302h-109v1302h-528z" />
<glyph unicode="U" horiz-adv-x="1430" d="M131 602v790h109v-770q0 -258 129.5 -401t343 -143t344 144.5t130.5 399.5v770h109v-773q0 -311 -166.5 -476t-418 -165t-416.5 165q-164 166 -164 459z" />
<glyph unicode="V" horiz-adv-x="1217" d="M0 1392h109l500 -1176l497 1176h109l-592 -1407h-31z" />
<glyph unicode="W" horiz-adv-x="2111" d="M0 1392h110l462 -1154l468 1154h32l467 -1154l463 1154h110l-560 -1407h-27l-469 1176l-469 -1176h-27z" />
<glyph unicode="X" horiz-adv-x="1409" d="M0 0l632 712l-600 680h139l533 -598l533 598h139l-599 -680l635 -712h-144l-565 636l-564 -636h-139z" />
<glyph unicode="Y" horiz-adv-x="1194" d="M0 1392h131l469 -549l466 549h131l-544 -647v-745h-109v745z" />
<glyph unicode="Z" horiz-adv-x="1300" d="M19 33l1054 1269h-1007v90h1175l10 -38l-1054 -1264h1062v-90h-1230z" />
<glyph unicode="[" horiz-adv-x="618" d="M137 -444h466v96h-368v1644h368v96h-466v-1836z" />
<glyph unicode="\" horiz-adv-x="575" d="M25 1414h96l448 -1430h-94z" />
<glyph unicode="]" horiz-adv-x="618" d="M15 -348h368v1644h-368v96h466v-1836h-466v96z" />
<glyph unicode="^" horiz-adv-x="1352" d="M224 878l448 539l448 -539l-66 -53l-382 462l-385 -462z" />
<glyph unicode="_" d="M-12 -151h1024v-103h-1024v103z" />
<glyph unicode="`" horiz-adv-x="682" d="M158 1392h166l218 -320h-68z" />
<glyph unicode="a" horiz-adv-x="874" d="M74 213q0 154 151.5 241.5t392.5 91.5v114q0 189 -212 189q-131 0 -281 -110v96q167 96 300 96t212 -62t79 -178v-564q0 -50 19 -50q34 0 135 80v-82q-53 -38 -98.5 -66t-81.5 -28h-8q-58 0 -64 112q-133 -112 -295 -112q-100 0 -175 66q-74 66 -74 166zM172 214 q0 -69 55.5 -110t139.5 -41q122 0 251 116v285q-30 2 -40 2q-169 0 -287.5 -68t-118.5 -184z" />
<glyph unicode="b" horiz-adv-x="1044" d="M127 53v1339h98v-605q152 144 330 144t292 -123t114 -340t-143 -352t-368 -135q-135 0 -323 72zM225 119q107 -42 215 -42q193 0 305 107.5t112 275t-88.5 271.5t-227.5 104q-167 0 -316 -160v-556z" />
<glyph unicode="c" horiz-adv-x="854" d="M86 444.5q0 210.5 125 348.5t326 138q97 0 245 -45v-108q-138 57 -241 57q-161 0 -256 -107.5t-95 -276.5t96 -272q97 -102 266 -102q110 0 247 54v-103q-123 -47 -245 -47q-214 0 -341 126.5t-127 337z" />
<glyph unicode="d" horiz-adv-x="1044" d="M84 458q0 202 131.5 337.5t334.5 135.5q122 0 270 -80v541h98v-1392h-98v77q-123 -96 -267 -96q-202 0 -336 137q-133 138 -133 340zM188 454q0 -162 112 -269.5t276 -107.5q118 0 244 90v573q-136 95 -264 95q-170 0 -269 -109.5t-99 -271.5z" />
<glyph unicode="e" horiz-adv-x="981" d="M81 465.5q0 196.5 117.5 331t297 134.5t294.5 -119.5t115 -322.5h-718q-2 -21 -2 -40q0 -160 106.5 -266t259.5 -106q93 0 164.5 29.5t173.5 107.5v-110q-153 -123 -355 -123t-328 144q-125 144 -125 340.5zM199 569h589q-56 266 -288 266q-119 0 -197.5 -72.5 t-103.5 -193.5z" />
<glyph unicode="f" horiz-adv-x="492" d="M16 832v80h176v155q0 156 90 249.5t223 93.5q76 0 169 -39v-92q-92 35 -168 35q-216 0 -216 -278v-124h176v-80h-176v-832h-98v832h-176z" />
<glyph unicode="g" horiz-adv-x="874" d="M37 -224q0 79 58 136.5t214 88.5q-154 36 -154 130q0 99 176 153q-90 16 -164 99q-73 84 -73 216.5t98 222.5t289 90h364v-80h-209q57 -35 92.5 -104t35.5 -137q0 -120 -65.5 -202t-224.5 -118l-111 -31q-114 -32 -114 -99q0 -41 39 -64t179 -33l105 -6q272 -21 272 -235 q0 -134 -113 -200.5t-293 -66.5t-290.5 62t-110.5 178zM131 -215q0 -167 310 -167q132 0 220.5 45t88.5 132q0 157 -309.5 157t-309.5 -167zM188 592q0 -100 66 -172.5t172 -72.5t175 62.5t69 173t-75.5 179t-174 68.5t-165.5 -69t-67 -169z" />
<glyph unicode="h" horiz-adv-x="1004" d="M127 0v1392h98v-653q128 192 313 192q156 0 249.5 -96.5t93.5 -258.5v-576h-98v519q0 316 -251 316q-92 0 -160 -39t-147 -157v-639h-98z" />
<glyph unicode="i" horiz-adv-x="385" d="M143 0v912h98v-912h-98zM143 1216v168h98v-168h-98z" />
<glyph unicode="j" horiz-adv-x="385" d="M-33 -382q95 5 134 69t39 214v1011h98v-1011q0 -183 -75.5 -274t-195.5 -91v82zM140 1216v168h98v-168h-98z" />
<glyph unicode="k" horiz-adv-x="874" d="M121 0v1392h98v-1392h-98zM233 481l513 431h129l-508 -431l586 -481h-135z" />
<glyph unicode="l" horiz-adv-x="385" d="M143 0v1392h98v-1392h-98z" />
<glyph unicode="m" horiz-adv-x="1579" d="M123 0v912h98v-173q121 192 293 192q218 0 308 -224q141 224 326 224q136 0 228.5 -98.5t92.5 -268.5v-564h-98v522q0 147 -67 230t-180 83q-76 0 -140 -46.5t-139 -165.5v-623h-98v525q0 156 -68 233t-183 77q-155 0 -275 -196v-639h-98z" />
<glyph unicode="n" horiz-adv-x="1004" d="M127 0v912h98v-173q122 192 313 192q151 0 247 -94.5t96 -280.5v-556h-98v528q0 307 -251 307q-185 0 -307 -196v-639h-98z" />
<glyph unicode="o" horiz-adv-x="1110" d="M86 453q0 204 133 341t332.5 137t335 -133.5t135.5 -337t-132 -341.5t-333 -138t-336 134t-135 338zM190 457.5q0 -166.5 107.5 -273.5t262 -107t256.5 107t102 270.5t-105.5 272t-257.5 108.5t-258.5 -105.5t-106.5 -272z" />
<glyph unicode="p" horiz-adv-x="1044" d="M129 -464v1376h98v-45q124 64 279 64q191 0 324 -130t133 -343.5t-137 -345t-323 -131.5q-132 0 -276 64v-509h-98zM227 141q124 -64 272.5 -64t254 100.5t105.5 265.5t-105.5 278.5t-277.5 113.5q-127 0 -249 -63v-631z" />
<glyph unicode="q" horiz-adv-x="1044" d="M75 439q0 214 132 353t317 139q52 0 110.5 -9.5t176.5 -72.5v63h98v-1376h-98v516q-158 -71 -296 -71q-183 0 -312 122q-128 122 -128 336zM179 444q0 -158 89 -262.5t262 -104.5q69 0 129 13.5t152 59.5v603q-141 82 -264 82q-166 0 -267 -116.5t-101 -274.5z" />
<glyph unicode="r" horiz-adv-x="682" d="M129 0v912h98v-246q169 265 329 265q87 0 215 -108l-57 -93q-115 105 -185 105q-142 0 -302 -261v-574h-98z" />
<glyph unicode="s" horiz-adv-x="725" d="M85 63v94q148 -80 290 -80q88 0 142 46t54 114q0 97 -147 156l-112 47q-221 89 -221 242q0 105 87 177t200.5 72t257.5 -82v-110q-153 102 -248 102t-149 -47t-54 -105t43 -95.5t129 -72.5l84 -36q117 -44 170.5 -101t53.5 -161.5t-91.5 -173t-222 -68.5t-266.5 82z" />
<glyph unicode="t" horiz-adv-x="618" d="M-38 832v80h247v218l67 86h31v-304h256v-80h-256v-631q0 -70 34 -97t101.5 -27t168.5 45v-94q-84 -47 -186 -47t-159 50.5t-57 141.5v659h-247z" />
<glyph unicode="u" horiz-adv-x="1004" d="M127 348v564h98v-561q0 -122 67 -198t188 -76q181 0 303 196v639h98v-912h-98v157q-68 -95 -139.5 -135.5t-170.5 -40.5q-140 0 -243 91t-103 276z" />
<glyph unicode="v" horiz-adv-x="874" d="M0 912h100l345 -767l335 767h97l-400 -931h-61z" />
<glyph unicode="w" horiz-adv-x="1450" d="M0 912h97l321 -746l286 746h54l283 -746l323 746h98l-400 -931h-48l-285 742l-281 -742h-48z" />
<glyph unicode="x" horiz-adv-x="981" d="M12 0l421 467l-421 445h127l361 -374l361 374h127l-421 -445l421 -467h-127l-361 399l-361 -399h-127z" />
<glyph unicode="y" horiz-adv-x="854" d="M12 912h103l331 -634l320 634h100l-688 -1376h-100l322 645z" />
<glyph unicode="z" horiz-adv-x="811" d="M20 32l607 790h-569v90h722l8 -32l-602 -790h602v-90h-757z" />
<glyph unicode="{" horiz-adv-x="682" d="M96 393v129q192 0 192 316v238q0 147 62 231.5t191 84.5q14 0 35 -2v-111q-92 0 -133.5 -39t-41.5 -146v-257q0 -316 -203 -377q203 -61 203 -376v-228q0 -128 38 -168q39 -39 137 -39v-108q-14 -5 -30 -5q-258 0 -258 315v235q0 307 -192 307z" />
<glyph unicode="|" horiz-adv-x="455" d="M176 -512v2048h98v-2048h-98z" />
<glyph unicode="}" horiz-adv-x="682" d="M96 -351q101 0 138 40.5t37 169.5v228q0 312 203 374q-203 61 -203 381v229q0 127 -37 167.5t-138 40.5v108q18 5 30 5q258 0 258 -316v-237q0 -310 192 -310v-129q-192 0 -192 -314v-237q0 -146 -64.5 -229.5t-188.5 -83.5h-17q-12 0 -18 2v111z" />
<glyph unicode="~" horiz-adv-x="1352" d="M136 593v111q162 120 285 120q76 0 258.5 -81t246 -81t133 38.5t149.5 96.5v-111q-164 -120 -264 -120t-274.5 81t-249 81t-161.5 -52.5t-123 -82.5z" />
<glyph unicode="&#xa1;" horiz-adv-x="362" d="M115 -448l35 997h63l35 -997h-133zM115 745v199h133v-199h-133z" />
<glyph unicode="&#xa2;" horiz-adv-x="854" d="M87 443q0 240 134 366t331 126q31 0 65 -4l135 372h88l-137 -391q45 -11 65 -22v-110q-44 28 -98 40l-253 -727q53 -17 124 -17q136 0 248 56v-96q-96 -58 -219.5 -58t-187.5 21l-140 -389h-90l152 424q-217 124 -217 409zM192 444q0 -208 145 -312l253 705h-50 q-165 0 -256.5 -110t-91.5 -283z" />
<glyph unicode="&#xa3;" horiz-adv-x="1130" d="M193 -14l166 638h-166v97h192v1q193 692 544 692q81 0 113 -21l47 -94q-49 17 -116 17q-309 0 -476 -594v-1h208v-97h-239l-139 -520q142 15 220 15t196 -21.5t160 -21.5q106 0 201 57v-110q-98 -45 -172 -45t-199.5 21.5t-252 21.5t-287.5 -35z" />
<glyph unicode="&#xa4;" horiz-adv-x="1139" d="M95 287l135 131q-102 120 -102 276t100 276l-133 133l66 66l133 -134q118 101 272.5 101t277.5 -101l133 134l66 -66l-134 -133q101 -123 101 -277t-99 -271l132 -135l-66 -66l-132 135q-121 -102 -276.5 -102t-272.5 99l-135 -132zM226 695.5q0 -134.5 101 -239.5 q102 -104 243.5 -104t241.5 101t100 240.5t-96 242t-249 102.5t-247 -104t-94 -238.5z" />
<glyph unicode="&#xa5;" horiz-adv-x="1139" d="M16 1465h147l418 -727l416 727h142l-424 -722h360v-97h-432v-160h432v-97h-432v-389h-131v389h-432v97h432v160h-432v97h362z" />
<glyph unicode="&#xa6;" horiz-adv-x="455" d="M176 358h98v-720h-98v720zM176 662v720h98v-720h-98z" />
<glyph unicode="&#xa7;" horiz-adv-x="811" d="M54 569.5q0 164.5 172 328.5q-56 70 -79.5 121.5t-23.5 120.5q0 105 78 188t204.5 83t201 -63t86.5 -161h-104q-32 134 -179 134q-86 0 -138.5 -53.5t-52.5 -120.5q0 -126 167 -273l174 -156q202 -174 202 -337.5t-172 -331.5q101 -117 101 -235.5t-76.5 -198t-206 -79.5 t-205.5 69.5t-80 154.5h104q26 -134 175 -134q79 0 136 48.5t57 130.5q0 117 -170 267l-192 174q-179 159 -179 323.5zM154 577q0 -131 170 -283l203 -179q135 125 135 251t-116 233l-257 233q-135 -124 -135 -255z" />
<glyph unicode="&#xa8;" horiz-adv-x="682" d="M64 1136v180h180v-180h-180zM436 1136v180h180v-180h-180z" />
<glyph unicode="&#xa9;" horiz-adv-x="1638" d="M64 724.5q0 326.5 226.5 545t532.5 218.5t533.5 -220t227.5 -539t-225.5 -540t-531.5 -221t-535 215q-228 215 -228 541.5zM160 727.5q0 -274.5 194 -469.5q195 -194 469.5 -194t469.5 194.5t195 469t-194.5 469.5t-471 195t-469.5 -195t-193 -469.5zM448 716.5 q0 181.5 106 301.5t279 120q87 0 162.5 -41.5t156.5 -189.5l-96 -25q-69 170 -226 170q-122 0 -200 -87.5t-78 -237t73 -249t198 -99.5q184 0 247 199l90 -30q-21 -97 -111 -177.5t-220 -80.5q-167 0 -274 122.5t-107 304z" />
<glyph unicode="&#xaa;" horiz-adv-x="575" d="M42 981q0 180 337 201v67q0 104 -114 104q-72 0 -190 -80v80q106 61 193.5 61t142.5 -40.5t55 -117.5v-291q0 -56 19 -56l82 60v-76q-99 -59 -134 -59q-46 0 -54 60q-74 -60 -160 -60t-132 42q-45 43 -45 105zM130 979q0 -84 96.5 -84t152.5 67v160q-126 0 -187.5 -41 t-61.5 -102z" />
<glyph unicode="&#xab;" d="M48 470l389 -464h123l-387 464l387 464h-123zM480 470l389 -464h123l-387 464l387 464h-123z" />
<glyph unicode="&#xac;" horiz-adv-x="1352" d="M144 902v90h1072v-586h-90v496h-982z" />
<glyph unicode="&#xad;" horiz-adv-x="641" d="M80 409v96h480v-96h-480z" />
<glyph unicode="&#xae;" horiz-adv-x="1638" d="M64 721.5q0 323.5 225 545t532.5 221.5t535 -220t227.5 -539t-225.5 -540t-531.5 -221t-535 215q-228 215 -228 538.5zM160 725q0 -272 194 -467q195 -194 469.5 -194t469.5 194.5t195 469t-194.5 469.5t-471 195t-469.5 -197.5t-193 -469.5zM528 319v798h326 q122 0 194 -54.5t72 -156.5q0 -182 -211 -225q95 -50 155 -176l86 -186h-120l-83 165q-48 101 -112 144q-53 39 -165 39h-44v-348h-98zM626 747h138q130 0 184.5 33.5t54.5 114.5t-52 111.5t-175 30.5h-150v-290z" />
<glyph unicode="&#xaf;" horiz-adv-x="682" d="M64 1184v104h544v-104h-544z" />
<glyph unicode="&#xb0;" horiz-adv-x="819" d="M128 1128.5q0 115.5 82 200.5q83 85 202 85t206.5 -82.5t87.5 -201t-81.5 -206t-208 -87.5t-207.5 88t-81 203.5zM210 1126q0 -83 57 -146q58 -62 149 -62t149.5 62.5t58.5 143.5t-58.5 145t-149 64t-148.5 -62t-58 -145z" />
<glyph unicode="&#xb1;" horiz-adv-x="1352" d="M144 -8v90h1082v-90h-1082zM144 674v90h496v496h90v-496h496v-90h-496v-496h-90v496h-496z" />
<glyph unicode="&#xb2;" horiz-adv-x="641" d="M62 672q393 335 393 533q0 65 -49 107t-130 42t-197 -82v76q102 68 209 68t180.5 -59t73.5 -156q0 -167 -301 -466h381v-63h-560z" />
<glyph unicode="&#xb3;" horiz-adv-x="641" d="M96 705v71q88 -50 188.5 -50t143.5 44t43 102q0 152 -215 152v62q94 0 149 36.5t55 96t-47.5 97.5t-130 38t-178.5 -66v73q81 55 198.5 55t179.5 -59t62 -128q0 -124 -139 -172q150 -41 150 -183q0 -84 -69.5 -147t-165.5 -63q-142 0 -224 41z" />
<glyph unicode="&#xb4;" horiz-adv-x="682" d="M256 1072l218 320h166l-316 -320h-68z" />
<glyph unicode="&#xb5;" horiz-adv-x="1139" d="M207 -368v1280h98v-503q0 -174 74 -256t199 -82q269 0 269 338v503h98v-912h-98v102q-110 -121 -282 -121q-97 0 -167.5 45t-92.5 76v-470h-98z" />
<glyph unicode="&#xb6;" horiz-adv-x="1331" d="M96 1058.5q0 186.5 132 300t366 113.5h671v-140h-197v-1732h-129v1732h-266v-1732h-129v1024q-221 0 -335 124q-113 124 -113 310.5z" />
<glyph unicode="&#xb7;" horiz-adv-x="575" d="M243 610v199h133v-199h-133z" />
<glyph unicode="&#xb8;" horiz-adv-x="682" d="M224 -350l11 66q23 -6 60 -6q138 0 138 77t-129 77l42 152h62l-25 -96q129 -19 129 -127q0 -66 -51.5 -109.5t-129 -43.5t-107.5 10z" />
<glyph unicode="&#xb9;" horiz-adv-x="641" d="M272 672v736h87v-736h-87z" />
<glyph unicode="&#xba;" horiz-adv-x="725" d="M48 1124q0 121 85.5 205.5t224 84.5t224 -90t85.5 -209.5t-89 -200t-224.5 -80.5t-220.5 84.5t-85 205.5zM139 1122.5q0 -100.5 61.5 -160.5t157 -60t157 62.5t61.5 160t-65 159.5t-157 62t-153.5 -61.5t-61.5 -162z" />
<glyph unicode="&#xbb;" d="M32 6l387 464l-387 464h123l389 -464l-389 -464h-123zM464 6l387 464l-387 464h123l389 -464l-389 -464h-123z" />
<glyph unicode="&#xbc;" horiz-adv-x="1706" d="M119 -58l1072 1472h80l-1072 -1472h-80zM284 672v736h87v-736h-87zM843 270v27l423 441h41v-410h114v-58h-114v-280h-87v280h-377zM960 328h260v271z" />
<glyph unicode="&#xbd;" horiz-adv-x="1706" d="M119 -58l1072 1472h80l-1072 -1472h-80zM284 672v736h87v-736h-87zM971 -8q393 335 393 533q0 65 -49 107t-130 42t-197 -82v76q102 68 209 68t180.5 -59t73.5 -156q0 -167 -301 -466h381v-63h-560z" />
<glyph unicode="&#xbe;" horiz-adv-x="1706" d="M143 705v71q88 -50 188.5 -50t143.5 44t43 102q0 152 -215 152v62q94 0 149 36.5t55 96t-47.5 97.5t-130 38t-178.5 -66v73q81 55 198.5 55t179.5 -59t62 -128q0 -124 -139 -172q150 -41 150 -183q0 -84 -69.5 -147t-165.5 -63q-142 0 -224 41zM226 -58l1072 1472h80 l-1072 -1472h-80zM950 270v27l423 441h41v-410h114v-58h-114v-280h-87v280h-377zM1067 328h260v271z" />
<glyph unicode="&#xbf;" horiz-adv-x="575" d="M46 -183q0 127 68 250l127 195q69 103 69 184q0 44 -18 82l-21 45l37 28q79 -85 79 -184.5t-118.5 -291t-118.5 -318.5q0 -83 48 -136.5t108 -53.5q99 0 168 109h20l-48 -158q-57 -38 -155 -38t-171.5 80t-73.5 207zM231 745v199h133v-199h-133z" />
<glyph unicode="&#xc0;" horiz-adv-x="1366" d="M8 0l640 1399h59l640 -1399h-112l-221 479h-674l-220 -479h-112zM360 1814h166l218 -320h-68zM381 569h594l-299 655z" />
<glyph unicode="&#xc1;" horiz-adv-x="1366" d="M8 0l640 1399h59l640 -1399h-112l-221 479h-674l-220 -479h-112zM381 569h594l-299 655zM565 1494l218 320h166l-316 -320h-68z" />
<glyph unicode="&#xc2;" horiz-adv-x="1366" d="M8 0l640 1399h59l640 -1399h-112l-221 479h-674l-220 -479h-112zM381 569h594l-299 655zM392 1494l224 336h124l224 -336h-79l-209 222l-205 -222h-79z" />
<glyph unicode="&#xc3;" horiz-adv-x="1366" d="M8 0l640 1399h59l640 -1399h-112l-221 479h-674l-220 -479h-112zM355 1551q0 81 42 137.5t115 56.5t195 -50.5t169 -50.5q73 0 90 101h62q0 -99 -50.5 -148t-114.5 -49t-187 50.5t-163 50.5q-76 0 -93 -98h-65zM381 569h594l-299 655z" />
<glyph unicode="&#xc4;" horiz-adv-x="1366" d="M8 0l640 1399h59l640 -1399h-112l-221 479h-674l-220 -479h-112zM381 569h594l-299 655zM393 1558v180h180v-180h-180zM765 1558v180h180v-180h-180z" />
<glyph unicode="&#xc5;" horiz-adv-x="1366" d="M8 0l640 1399h59l640 -1399h-112l-221 479h-674l-220 -479h-112zM381 569h594l-299 655zM499 1642.5q0 70.5 50.5 125t127.5 54.5t129.5 -52.5t52.5 -126t-52 -127.5t-129.5 -54t-128.5 55q-50 55 -50 125.5zM555 1641q0 -51 37 -87t87 -36t87 35t37 89t-37 89t-88 35 t-87 -37t-36 -88z" />
<glyph unicode="&#xc6;" horiz-adv-x="1772" d="M-29 0l880 1392h826v-90h-653v-559h639v-90h-639v-563h672v-90h-781v653h-416l-409 -653h-119zM560 743h355v573z" />
<glyph unicode="&#xc7;" horiz-adv-x="1386" d="M100 695.5q0 305.5 212 512t518 206.5q224 0 491 -119v-121q-262 140 -511 140t-421 -176.5t-172 -435t165 -441.5t452 -183q220 0 503 140v-111q-267 -129 -503 -129q-319 0 -527 206q-207 206 -207 511.5zM686 -350l11 66q23 -6 60 -6q138 0 138 77t-129 77l42 152h62 l-25 -96q129 -19 129 -127q0 -66 -51.5 -109.5t-129 -43.5t-107.5 10z" />
<glyph unicode="&#xc8;" horiz-adv-x="1004" d="M164 0v1392h765v-90h-656v-559h639v-90h-639v-563h673v-90h-782zM240 1814h166l218 -320h-68z" />
<glyph unicode="&#xc9;" horiz-adv-x="1004" d="M164 0v1392h765v-90h-656v-559h639v-90h-639v-563h673v-90h-782zM445 1494l218 320h166l-316 -320h-68z" />
<glyph unicode="&#xca;" horiz-adv-x="1004" d="M164 0v1392h765v-90h-656v-559h639v-90h-639v-563h673v-90h-782zM272 1494l224 336h124l224 -336h-79l-209 222l-205 -222h-79z" />
<glyph unicode="&#xcb;" horiz-adv-x="1004" d="M164 0v1392h765v-90h-656v-559h639v-90h-639v-563h673v-90h-782zM273 1558v180h180v-180h-180zM645 1558v180h180v-180h-180z" />
<glyph unicode="&#xcc;" horiz-adv-x="426" d="M-97 1814h166l218 -320h-68zM159 0v1392h109v-1392h-109z" />
<glyph unicode="&#xcd;" horiz-adv-x="426" d="M108 1494l218 320h166l-316 -320h-68zM159 0v1392h109v-1392h-109z" />
<glyph unicode="&#xce;" horiz-adv-x="426" d="M-65 1494l224 336h124l224 -336h-79l-209 222l-205 -222h-79zM159 0v1392h109v-1392h-109z" />
<glyph unicode="&#xcf;" horiz-adv-x="426" d="M-64 1558v180h180v-180h-180zM159 0v1392h109v-1392h-109zM308 1558v180h180v-180h-180z" />
<glyph unicode="&#xd0;" horiz-adv-x="1516" d="M-46 653v90h210v649h517q323 0 525.5 -188t202.5 -506t-201.5 -508t-499.5 -190h-544v653h-210zM273 90h411q249 0 428.5 164.5t179.5 443.5t-187 441.5t-450 162.5h-382v-559h448v-90h-448v-563z" />
<glyph unicode="&#xd1;" horiz-adv-x="1579" d="M159 0v1392h92l1060 -1218v1218h109v-1392h-90l-1062 1218v-1218h-109zM506 1551q0 81 42 137.5t115 56.5t195 -50.5t169 -50.5q73 0 90 101h62q0 -99 -50.5 -148t-114.5 -49t-187 50.5t-163 50.5q-76 0 -93 -98h-65z" />
<glyph unicode="&#xd2;" horiz-adv-x="1686" d="M105 696.5q0 315.5 220 516.5t524.5 201t518.5 -210.5t214 -508t-215.5 -507.5t-517 -210t-523.5 201q-221 202 -221 517.5zM222 695.5q0 -270.5 188 -442.5t437 -172t433.5 172t184.5 444t-185 444.5t-436 172.5t-436.5 -174t-185.5 -444.5zM520 1814h166l218 -320h-68z " />
<glyph unicode="&#xd3;" horiz-adv-x="1686" d="M105 696.5q0 315.5 220 516.5t524.5 201t518.5 -210.5t214 -508t-215.5 -507.5t-517 -210t-523.5 201q-221 202 -221 517.5zM222 695.5q0 -270.5 188 -442.5t437 -172t433.5 172t184.5 444t-185 444.5t-436 172.5t-436.5 -174t-185.5 -444.5zM725 1494l218 320h166 l-316 -320h-68z" />
<glyph unicode="&#xd4;" horiz-adv-x="1686" d="M105 696.5q0 315.5 220 516.5t524.5 201t518.5 -210.5t214 -508t-215.5 -507.5t-517 -210t-523.5 201q-221 202 -221 517.5zM222 695.5q0 -270.5 188 -442.5t437 -172t433.5 172t184.5 444t-185 444.5t-436 172.5t-436.5 -174t-185.5 -444.5zM552 1494l224 336h124 l224 -336h-79l-209 222l-205 -222h-79z" />
<glyph unicode="&#xd5;" horiz-adv-x="1686" d="M105 696.5q0 315.5 220 516.5t524.5 201t518.5 -210.5t214 -508t-215.5 -507.5t-517 -210t-523.5 201q-221 202 -221 517.5zM222 695.5q0 -270.5 188 -442.5t437 -172t433.5 172t184.5 444t-185 444.5t-436 172.5t-436.5 -174t-185.5 -444.5zM515 1551q0 81 42 137.5 t115 56.5t195 -50.5t169 -50.5q73 0 90 101h62q0 -99 -50.5 -148t-114.5 -49t-187 50.5t-163 50.5q-76 0 -93 -98h-65z" />
<glyph unicode="&#xd6;" horiz-adv-x="1686" d="M105 696.5q0 315.5 220 516.5t524.5 201t518.5 -210.5t214 -508t-215.5 -507.5t-517 -210t-523.5 201q-221 202 -221 517.5zM222 695.5q0 -270.5 188 -442.5t437 -172t433.5 172t184.5 444t-185 444.5t-436 172.5t-436.5 -174t-185.5 -444.5zM553 1558v180h180v-180h-180 zM925 1558v180h180v-180h-180z" />
<glyph unicode="&#xd7;" horiz-adv-x="1352" d="M256 373l350 348l-350 348l68 68l348 -349l350 349l66 -68l-349 -348l349 -348l-66 -68l-350 349l-348 -349z" />
<glyph unicode="&#xd8;" horiz-adv-x="1686" d="M105 708.5q0 303.5 218 504.5q219 201 514 201q245 0 462 -152l131 144l76 -51l-136 -153q212 -220 212 -512t-214 -502t-521 -210q-119 0 -240.5 39t-206.5 106l-129 -146l-78 59l133 144q-221 225 -221 528.5zM222 699q0 -123 48 -242.5t131 -191.5l826 920 q-169 129 -385 129q-257 0 -438.5 -177t-181.5 -438zM472 202q154 -121 363 -121q255 0 442.5 171t187.5 442q0 114 -43 232.5t-125 192.5z" />
<glyph unicode="&#xd9;" horiz-adv-x="1430" d="M131 602v790h109v-770q0 -258 129.5 -401t343 -143t344 144.5t130.5 399.5v770h109v-773q0 -311 -166.5 -476t-418 -165t-416.5 165q-164 166 -164 459zM418 1814h166l218 -320h-68z" />
<glyph unicode="&#xda;" horiz-adv-x="1430" d="M131 602v790h109v-770q0 -258 129.5 -401t343 -143t344 144.5t130.5 399.5v770h109v-773q0 -311 -166.5 -476t-418 -165t-416.5 165q-164 166 -164 459zM623 1494l218 320h166l-316 -320h-68z" />
<glyph unicode="&#xdb;" horiz-adv-x="1430" d="M131 602v790h109v-770q0 -258 129.5 -401t343 -143t344 144.5t130.5 399.5v770h109v-773q0 -311 -166.5 -476t-418 -165t-416.5 165q-164 166 -164 459zM450 1494l224 336h124l224 -336h-79l-209 222l-205 -222h-79z" />
<glyph unicode="&#xdc;" horiz-adv-x="1430" d="M131 602v790h109v-770q0 -258 129.5 -401t343 -143t344 144.5t130.5 399.5v770h109v-773q0 -311 -166.5 -476t-418 -165t-416.5 165q-164 166 -164 459zM451 1558v180h180v-180h-180zM823 1558v180h180v-180h-180z" />
<glyph unicode="&#xdd;" horiz-adv-x="1194" d="M0 1392h131l469 -549l466 549h131l-544 -647v-745h-109v745zM495 1494l218 320h166l-316 -320h-68z" />
<glyph unicode="&#xde;" horiz-adv-x="1044" d="M159 0v1392h109v-326h279q219 0 338 -94t119 -276.5t-125.5 -276t-335.5 -93.5h-275v-326h-109zM268 416h249q370 0 370 280q0 138 -95 209t-251 71h-273v-560z" />
<glyph unicode="&#xdf;" d="M127 0v980q0 203 96 316.5t273 113.5t281 -96.5t104 -241.5q0 -109 -56.5 -195t-129.5 -108q250 -91 250 -363q0 -180 -100.5 -302.5t-269.5 -122.5q-71 0 -126 18v104q61 -26 123 -26q115 0 192 83t77 229.5t-73 235.5t-207 97v92h24q84 0 138 75t54 184t-72 182 t-195 73q-285 0 -285 -342v-986h-98z" />
<glyph unicode="&#xe0;" horiz-adv-x="874" d="M74 213q0 154 151.5 241.5t392.5 91.5v114q0 189 -212 189q-131 0 -281 -110v96q167 96 300 96t212 -62t79 -178v-564q0 -50 19 -50q34 0 135 80v-82q-53 -38 -98.5 -66t-81.5 -28h-8q-58 0 -64 112q-133 -112 -295 -112q-100 0 -175 66q-74 66 -74 166zM123 1379h166 l218 -320h-68zM172 214q0 -69 55.5 -110t139.5 -41q122 0 251 116v285q-30 2 -40 2q-169 0 -287.5 -68t-118.5 -184z" />
<glyph unicode="&#xe1;" horiz-adv-x="874" d="M74 213q0 154 151.5 241.5t392.5 91.5v114q0 189 -212 189q-131 0 -281 -110v96q167 96 300 96t212 -62t79 -178v-564q0 -50 19 -50q34 0 135 80v-82q-53 -38 -98.5 -66t-81.5 -28h-8q-58 0 -64 112q-133 -112 -295 -112q-100 0 -175 66q-74 66 -74 166zM172 214 q0 -69 55.5 -110t139.5 -41q122 0 251 116v285q-30 2 -40 2q-169 0 -287.5 -68t-118.5 -184zM328 1059l218 320h166l-316 -320h-68z" />
<glyph unicode="&#xe2;" horiz-adv-x="874" d="M74 213q0 154 151.5 241.5t392.5 91.5v114q0 189 -212 189q-131 0 -281 -110v96q167 96 300 96t212 -62t79 -178v-564q0 -50 19 -50q34 0 135 80v-82q-53 -38 -98.5 -66t-81.5 -28h-8q-58 0 -64 112q-133 -112 -295 -112q-100 0 -175 66q-74 66 -74 166zM155 1059 l224 336h124l224 -336h-79l-209 222l-205 -222h-79zM172 214q0 -69 55.5 -110t139.5 -41q122 0 251 116v285q-30 2 -40 2q-169 0 -287.5 -68t-118.5 -184z" />
<glyph unicode="&#xe3;" horiz-adv-x="874" d="M74 213q0 154 151.5 241.5t392.5 91.5v114q0 189 -212 189q-131 0 -281 -110v96q167 96 300 96t212 -62t79 -178v-564q0 -50 19 -50q34 0 135 80v-82q-53 -38 -98.5 -66t-81.5 -28h-8q-58 0 -64 112q-133 -112 -295 -112q-100 0 -175 66q-74 66 -74 166zM118 1116 q0 81 42 137.5t115 56.5t195 -50.5t169 -50.5q73 0 90 101h62q0 -99 -50.5 -148t-114.5 -49t-187 50.5t-163 50.5q-76 0 -93 -98h-65zM172 214q0 -69 55.5 -110t139.5 -41q122 0 251 116v285q-30 2 -40 2q-169 0 -287.5 -68t-118.5 -184z" />
<glyph unicode="&#xe4;" horiz-adv-x="874" d="M74 213q0 154 151.5 241.5t392.5 91.5v114q0 189 -212 189q-131 0 -281 -110v96q167 96 300 96t212 -62t79 -178v-564q0 -50 19 -50q34 0 135 80v-82q-53 -38 -98.5 -66t-81.5 -28h-8q-58 0 -64 112q-133 -112 -295 -112q-100 0 -175 66q-74 66 -74 166zM156 1123v180 h180v-180h-180zM172 214q0 -69 55.5 -110t139.5 -41q122 0 251 116v285q-30 2 -40 2q-169 0 -287.5 -68t-118.5 -184zM528 1123v180h180v-180h-180z" />
<glyph unicode="&#xe5;" horiz-adv-x="874" d="M74 213q0 154 151.5 241.5t392.5 91.5v114q0 189 -212 189q-131 0 -281 -110v96q167 96 300 96t212 -62t79 -178v-564q0 -50 19 -50q34 0 135 80v-82q-53 -38 -98.5 -66t-81.5 -28h-8q-58 0 -64 112q-133 -112 -295 -112q-100 0 -175 66q-74 66 -74 166zM172 214 q0 -69 55.5 -110t139.5 -41q122 0 251 116v285q-30 2 -40 2q-169 0 -287.5 -68t-118.5 -184zM262 1207.5q0 70.5 50.5 125t127.5 54.5t129.5 -52.5t52.5 -126t-52 -127.5t-129.5 -54t-128.5 55q-50 55 -50 125.5zM318 1206q0 -51 37 -87t87 -36t87 35t37 89t-37 89t-88 35 t-87 -37t-36 -88z" />
<glyph unicode="&#xe6;" horiz-adv-x="1366" d="M68 226.5q0 115.5 112 195t416 153.5v78q0 85 -47 136.5t-135 51.5q-139 0 -303 -118v104q150 104 314.5 104t250.5 -144q108 144 262.5 144t251 -121.5t96.5 -315.5h-592v-116q0 -155 76 -228t185 -73q164 0 331 128v-117q-163 -107 -332.5 -107t-297.5 144 q-199 -144 -345 -144q-102 0 -173 65q-70 65 -70 180.5zM162 213q0 -67 50 -108.5t120 -41.5q105 0 264 118v314q-434 -107 -434 -282zM694 574h488q0 102 -70.5 181.5t-178 79.5t-173.5 -77t-66 -184z" />
<glyph unicode="&#xe7;" horiz-adv-x="854" d="M86 444.5q0 210.5 125 348.5t326 138q97 0 245 -45v-108q-138 57 -241 57q-161 0 -256 -107.5t-95 -276.5t96 -272q97 -102 266 -102q110 0 247 54v-103q-123 -47 -245 -47q-214 0 -341 126.5t-127 337zM347 -350l11 66q23 -6 60 -6q138 0 138 77t-129 77l42 152h62 l-25 -96q129 -19 129 -127q0 -66 -51.5 -109.5t-129 -43.5t-107.5 10z" />
<glyph unicode="&#xe8;" horiz-adv-x="981" d="M81 465.5q0 196.5 117.5 331t297 134.5t294.5 -119.5t115 -322.5h-718q-2 -21 -2 -40q0 -160 106.5 -266t259.5 -106q93 0 164.5 29.5t173.5 107.5v-110q-153 -123 -355 -123t-328 144q-125 144 -125 340.5zM181 1379h166l218 -320h-68zM199 569h589q-56 266 -288 266 q-119 0 -197.5 -72.5t-103.5 -193.5z" />
<glyph unicode="&#xe9;" horiz-adv-x="981" d="M81 465.5q0 196.5 117.5 331t297 134.5t294.5 -119.5t115 -322.5h-718q-2 -21 -2 -40q0 -160 106.5 -266t259.5 -106q93 0 164.5 29.5t173.5 107.5v-110q-153 -123 -355 -123t-328 144q-125 144 -125 340.5zM199 569h589q-56 266 -288 266q-119 0 -197.5 -72.5 t-103.5 -193.5zM386 1059l218 320h166l-316 -320h-68z" />
<glyph unicode="&#xea;" horiz-adv-x="981" d="M81 465.5q0 196.5 117.5 331t297 134.5t294.5 -119.5t115 -322.5h-718q-2 -21 -2 -40q0 -160 106.5 -266t259.5 -106q93 0 164.5 29.5t173.5 107.5v-110q-153 -123 -355 -123t-328 144q-125 144 -125 340.5zM199 569h589q-56 266 -288 266q-119 0 -197.5 -72.5 t-103.5 -193.5zM213 1059l224 336h124l224 -336h-79l-209 222l-205 -222h-79z" />
<glyph unicode="&#xeb;" horiz-adv-x="981" d="M81 465.5q0 196.5 117.5 331t297 134.5t294.5 -119.5t115 -322.5h-718q-2 -21 -2 -40q0 -160 106.5 -266t259.5 -106q93 0 164.5 29.5t173.5 107.5v-110q-153 -123 -355 -123t-328 144q-125 144 -125 340.5zM199 569h589q-56 266 -288 266q-119 0 -197.5 -72.5 t-103.5 -193.5zM214 1123v180h180v-180h-180zM586 1123v180h180v-180h-180z" />
<glyph unicode="&#xec;" horiz-adv-x="385" d="M-124 1379h166l218 -320h-68zM143 0v912h98v-912h-98z" />
<glyph unicode="&#xed;" horiz-adv-x="385" d="M81 1059l218 320h166l-316 -320h-68zM143 0v912h98v-912h-98z" />
<glyph unicode="&#xee;" horiz-adv-x="385" d="M-92 1059l224 336h124l224 -336h-79l-209 222l-205 -222h-79zM143 0v912h98v-912h-98z" />
<glyph unicode="&#xef;" horiz-adv-x="385" d="M-91 1123v180h180v-180h-180zM143 0v912h98v-912h-98zM281 1123v180h180v-180h-180z" />
<glyph unicode="&#xf0;" horiz-adv-x="1145" d="M78 451q0 205 144 342.5t358 137.5q98 0 187.5 -35t190.5 -144q-45 130 -106 216q-60 86 -194 202l-301 -143l-31 67l263 124q-59 38 -191 100l38 74q161 -60 248 -131l279 131l31 -67l-240 -114q146 -114 235 -288t89 -416.5t-136 -384t-376 -141.5q-195 0 -342 132 q-146 133 -146 338zM182 449.5q0 -160.5 113.5 -266.5t287 -106t282.5 105t109 274.5t-112 274t-281.5 104.5t-284 -112.5t-114.5 -273z" />
<glyph unicode="&#xf1;" horiz-adv-x="1004" d="M127 0v912h98v-173q122 192 313 192q151 0 247 -94.5t96 -280.5v-556h-98v528q0 307 -251 307q-185 0 -307 -196v-639h-98zM199 1116q0 81 42 137.5t115 56.5t195 -50.5t169 -50.5q73 0 90 101h62q0 -99 -50.5 -148t-114.5 -49t-187 50.5t-163 50.5q-76 0 -93 -98h-65z " />
<glyph unicode="&#xf2;" horiz-adv-x="1110" d="M86 453q0 204 133 341t332.5 137t335 -133.5t135.5 -337t-132 -341.5t-333 -138t-336 134t-135 338zM190 457.5q0 -166.5 107.5 -273.5t262 -107t256.5 107t102 270.5t-105.5 272t-257.5 108.5t-258.5 -105.5t-106.5 -272zM240 1379h166l218 -320h-68z" />
<glyph unicode="&#xf3;" horiz-adv-x="1110" d="M86 453q0 204 133 341t332.5 137t335 -133.5t135.5 -337t-132 -341.5t-333 -138t-336 134t-135 338zM190 457.5q0 -166.5 107.5 -273.5t262 -107t256.5 107t102 270.5t-105.5 272t-257.5 108.5t-258.5 -105.5t-106.5 -272zM445 1059l218 320h166l-316 -320h-68z" />
<glyph unicode="&#xf4;" horiz-adv-x="1110" d="M86 453q0 204 133 341t332.5 137t335 -133.5t135.5 -337t-132 -341.5t-333 -138t-336 134t-135 338zM190 457.5q0 -166.5 107.5 -273.5t262 -107t256.5 107t102 270.5t-105.5 272t-257.5 108.5t-258.5 -105.5t-106.5 -272zM272 1059l224 336h124l224 -336h-79l-209 222 l-205 -222h-79z" />
<glyph unicode="&#xf5;" horiz-adv-x="1110" d="M86 453q0 204 133 341t332.5 137t335 -133.5t135.5 -337t-132 -341.5t-333 -138t-336 134t-135 338zM190 457.5q0 -166.5 107.5 -273.5t262 -107t256.5 107t102 270.5t-105.5 272t-257.5 108.5t-258.5 -105.5t-106.5 -272zM235 1116q0 81 42 137.5t115 56.5t195 -50.5 t169 -50.5q73 0 90 101h62q0 -99 -50.5 -148t-114.5 -49t-187 50.5t-163 50.5q-76 0 -93 -98h-65z" />
<glyph unicode="&#xf6;" horiz-adv-x="1110" d="M86 453q0 204 133 341t332.5 137t335 -133.5t135.5 -337t-132 -341.5t-333 -138t-336 134t-135 338zM190 457.5q0 -166.5 107.5 -273.5t262 -107t256.5 107t102 270.5t-105.5 272t-257.5 108.5t-258.5 -105.5t-106.5 -272zM273 1123v180h180v-180h-180zM645 1123v180h180 v-180h-180z" />
<glyph unicode="&#xf7;" horiz-adv-x="1352" d="M144 674v90h1087v-90h-1087zM608 384.5q0 33.5 20 57.5t61 24t59.5 -24t18.5 -56q0 -80 -80 -80q-35 0 -57 22.5t-22 56zM608 1050.5q0 33.5 20 57.5t58 24t59.5 -20.5t21.5 -59.5q0 -80 -80 -80q-37 0 -58 22.5t-21 56z" />
<glyph unicode="&#xf8;" horiz-adv-x="1110" d="M86 -6l117 137q-117 121 -117 324t132.5 339.5t333.5 136.5q159 0 285 -89l108 121l63 -51l-110 -126q124 -136 124 -331.5t-132 -334.5t-320.5 -139t-296.5 87l-119 -135zM190 471q0 -154 84 -265l493 560q-92 69 -228.5 69t-242.5 -105t-106 -259zM341 147 q82 -70 227.5 -70t247.5 108.5t102 258.5t-88 262z" />
<glyph unicode="&#xf9;" horiz-adv-x="1004" d="M127 348v564h98v-561q0 -122 67 -198t188 -76q181 0 303 196v639h98v-912h-98v157q-68 -95 -139.5 -135.5t-170.5 -40.5q-140 0 -243 91t-103 276zM189 1379h166l218 -320h-68z" />
<glyph unicode="&#xfa;" horiz-adv-x="1004" d="M127 348v564h98v-561q0 -122 67 -198t188 -76q181 0 303 196v639h98v-912h-98v157q-68 -95 -139.5 -135.5t-170.5 -40.5q-140 0 -243 91t-103 276zM394 1059l218 320h166l-316 -320h-68z" />
<glyph unicode="&#xfb;" horiz-adv-x="1004" d="M127 348v564h98v-561q0 -122 67 -198t188 -76q181 0 303 196v639h98v-912h-98v157q-68 -95 -139.5 -135.5t-170.5 -40.5q-140 0 -243 91t-103 276zM221 1059l224 336h124l224 -336h-79l-209 222l-205 -222h-79z" />
<glyph unicode="&#xfc;" horiz-adv-x="1004" d="M127 348v564h98v-561q0 -122 67 -198t188 -76q181 0 303 196v639h98v-912h-98v157q-68 -95 -139.5 -135.5t-170.5 -40.5q-140 0 -243 91t-103 276zM222 1123v180h180v-180h-180zM594 1123v180h180v-180h-180z" />
<glyph unicode="&#xfd;" horiz-adv-x="854" d="M12 912h103l331 -634l320 634h100l-688 -1376h-100l322 645zM316 1059l218 320h166l-316 -320h-68z" />
<glyph unicode="&#xfe;" horiz-adv-x="1044" d="M129 -464v1856h98v-525q124 64 279 64q191 0 324 -130t133 -343.5t-137.5 -345t-322.5 -131.5q-132 0 -276 64v-509h-98zM227 141q124 -64 272.5 -64t254 100.5t105.5 265.5t-105.5 278.5t-277.5 113.5q-127 0 -249 -63v-631z" />
<glyph unicode="&#xff;" horiz-adv-x="854" d="M12 912h103l331 -634l320 634h100l-688 -1376h-100l322 645zM144 1123v180h180v-180h-180zM516 1123v180h180v-180h-180z" />
<glyph unicode="&#x152;" horiz-adv-x="1835" d="M85 695.5q0 299.5 210.5 498t528.5 198.5h921v-90h-655v-559h638v-90h-638v-563h672v-90h-937q-321 0 -531 198q-209 198 -209 497.5zM202 694.5q0 -261.5 179 -433.5q180 -171 469 -171h131v1212h-137q-281 0 -461.5 -173t-180.5 -434.5z" />
<glyph unicode="&#x153;" horiz-adv-x="1706" d="M84 455.5q0 207.5 129 341.5q130 134 343 134q247 0 373 -208q105 208 322 208q157 0 267 -118.5t110 -323.5h-640v-52q0 -360 311 -360q150 0 306 144v-111q-154 -129 -334 -129q-246 0 -344 224q-121 -224 -385 -224q-208 0 -333 133.5t-125 341zM188 458.5 q0 -165.5 100.5 -273.5t252.5 -108t247.5 110t95.5 284t-89 269t-249.5 95t-259 -105.5t-98.5 -271zM988 569h523q-11 125 -79 195.5t-180 70.5q-231 0 -264 -266z" />
<glyph unicode="&#x178;" horiz-adv-x="1194" d="M0 1392h131l469 -549l466 549h131l-544 -647v-745h-109v745zM323 1558v180h180v-180h-180zM695 1558v180h180v-180h-180z" />
<glyph unicode="&#x2c6;" horiz-adv-x="682" d="M64 1072l224 336h124l224 -336h-79l-209 222l-205 -222h-79z" />
<glyph unicode="&#x2dc;" horiz-adv-x="682" d="M0 1129q0 81 42 137.5t115 56.5t195 -50.5t169 -50.5q73 0 90 101h62q0 -99 -50.5 -148t-114.5 -49t-187 50.5t-163 50.5q-76 0 -93 -98h-65z" />
<glyph unicode="&#x2000;" horiz-adv-x="915" />
<glyph unicode="&#x2001;" horiz-adv-x="1830" />
<glyph unicode="&#x2002;" horiz-adv-x="915" />
<glyph unicode="&#x2003;" horiz-adv-x="1830" />
<glyph unicode="&#x2004;" horiz-adv-x="610" />
<glyph unicode="&#x2005;" horiz-adv-x="457" />
<glyph unicode="&#x2006;" horiz-adv-x="305" />
<glyph unicode="&#x2007;" horiz-adv-x="305" />
<glyph unicode="&#x2008;" horiz-adv-x="228" />
<glyph unicode="&#x2009;" horiz-adv-x="366" />
<glyph unicode="&#x200a;" horiz-adv-x="101" />
<glyph unicode="&#x2010;" horiz-adv-x="641" d="M80 409v96h480v-96h-480z" />
<glyph unicode="&#x2011;" horiz-adv-x="641" d="M80 409v96h480v-96h-480z" />
<glyph unicode="&#x2012;" horiz-adv-x="641" d="M80 409v96h480v-96h-480z" />
<glyph unicode="&#x2013;" d="M-12 475v65h1056v-65h-1056z" />
<glyph unicode="&#x2014;" horiz-adv-x="2048" d="M-12 475v65h2080v-65h-2080z" />
<glyph unicode="&#x2018;" horiz-adv-x="362" d="M120 953v147q0 192 133 292v-71q-44 -66 -44 -169h39v-199h-128z" />
<glyph unicode="&#x2019;" horiz-adv-x="362" d="M109 953v71q44 66 44 169h-39v199h128v-147q0 -192 -133 -292z" />
<glyph unicode="&#x201a;" horiz-adv-x="362" d="M109 -178q44 66 44 169h-39v199h128v-147q0 -192 -133 -292v71z" />
<glyph unicode="&#x201c;" horiz-adv-x="811" d="M121 953v147q0 192 133 292v-71q-44 -66 -44 -169h39v-199h-128zM569 953v147q0 192 133 292v-71q-44 -66 -44 -169h39v-199h-128z" />
<glyph unicode="&#x201d;" horiz-adv-x="811" d="M109 953v71q44 66 44 169h-39v199h128v-147q0 -192 -133 -292zM557 953v71q44 66 44 169h-39v199h128v-147q0 -192 -133 -292z" />
<glyph unicode="&#x201e;" horiz-adv-x="811" d="M107 -178q44 66 44 169h-39v199h128v-147q0 -192 -133 -292v71zM555 -178q44 66 44 169h-39v199h128v-147q0 -192 -133 -292v71z" />
<glyph unicode="&#x2022;" d="M265 696.5q0 102.5 69 175t178.5 72.5t179 -71.5t69.5 -177t-69.5 -176.5t-175 -71t-178.5 73t-73 175.5z" />
<glyph unicode="&#x2026;" horiz-adv-x="2048" d="M274 0v199h133v-199h-133zM962 0v199h133v-199h-133zM1650 0v199h133v-199h-133z" />
<glyph unicode="&#x202f;" horiz-adv-x="366" />
<glyph unicode="&#x2039;" horiz-adv-x="575" d="M30 470l389 -464h123l-387 464l387 464h-123z" />
<glyph unicode="&#x203a;" horiz-adv-x="575" d="M33 6l387 464l-387 464h123l389 -464l-389 -464h-123z" />
<glyph unicode="&#x205f;" horiz-adv-x="457" />
<glyph unicode="&#x20ac;" d="M62 543l13 81h135q-4 48 -4 81t6 95h-150l13 81h147q30 222 172.5 377.5t348.5 155.5q141 0 292 -86v-108q-141 96 -296.5 96t-269 -121.5t-139.5 -313.5h497l-13 -81h-495q-4 -41 -4 -94t2 -82h478l-13 -81h-457q23 -196 135 -332q113 -135 295 -135q72 0 155 30.5 t125 65.5v-100q-32 -31 -117 -62.5t-190 -31.5q-212 0 -348 156.5t-164 408.5h-154z" />
<glyph unicode="&#x2122;" horiz-adv-x="1925" d="M151 1388v84h634v-84h-265v-732h-104v732h-265zM880 656v816h154l219 -657l213 657h155v-816h-92v743l-244 -743h-69l-244 743v-743h-92z" />
<glyph unicode="&#xe000;" horiz-adv-x="910" d="M0 0v910h910v-910h-910z" />
<glyph unicode="&#xfb01;" horiz-adv-x="981" d="M16 832v80h176v118q0 380 331 380q131 0 216.5 -62t94.5 -194h-98q-19 174 -214 174q-116 0 -174 -76t-58 -243v-97h192v-80h-192v-832h-98v832h-176zM736 0v912h98v-912h-98z" />
<glyph unicode="&#xfb02;" horiz-adv-x="981" d="M21 832v80h176v161q0 150 86 243.5t222 93.5q76 0 142 -31v-96q-88 31 -163.5 31t-132 -58.5t-56.5 -174.5v-169h192v-80h-192v-832h-98v832h-176zM741 0v1392h98v-1392h-98z" />
</font>
</defs>
</svg>
